2.0 (2018) toy story 4 peaky blinders s05e05 men in black international 2019 萝莉 big bang theory español dark phoenix 2019 ready or not 2019 ethd Last Week Tonight anal fast furious presents hobbs shaw 2019 the lion king 2019 ddr proper kabir singh ettv scary stories to tell in the dark 2019 Anna  spider man far from home 2019 ballers anna 2019 avengers endgame 2019 godzilla king of the monsters 2019 0 it chapter two 2019 Titans s02e02 angel has fallen 2019 joker 2019 HINDI it 2017 47 meters down uncaged 2019 ad astra 2019 spiderman Succession love hip hop hollywood s06e07 wwe yesterday 2019 preacher toy story 4 2019 Fear The Walking Dead once upon a time in hollywood 2019 hustlers 2019 the deuce etmovies Survivor power s06e03 幼女 preacher s04e08 xxx etrg good boys 2019 aladdin 2019 ballers s05e04 far from home john wick chapter 3 – parabellum 2019 titans spider man far from home spiderman far from home power s06e04 yts fear the walking dead s05e14 evo ma 2019 peaky blinders childs play 2019 the secret life of pets 2 2019 dream girl  Crawl 2019 
Warning! Use a VPN When Downloading Torrents!
Your IP Address is 18.204.2.53. Location is United States
Your Internet Provider is tracking your torrent activity! Hide your IP ADDRESS with a VPN!
We strongly recommend using ExpressVPN to anonymize your torrenting. 30 Day Money Back Guarantee!
Try it Now!
ETTV Recommended TV Shows
Mayans.M.C.S02E03.WEB.H264-iNSiDiOUS[ettv] torrent
Bachelor.In.Paradise.S06E13.WEB.x264-TBS[ettv] torrent
Mr.Mercedes.S03E02.Madness.720p.AMZN.WEB-DL.DDP5.1.H.264-NTb[ettv] torrent
WWE SmackDown Live 2019 09 17 HDTV x264-NWCHD [TJET] torrent

ETTV Recommended SD
Mayday.2019.HDRip.XviD.AC3-EVO[EtMovies] torrent
Annabelle Comes Home.2019.HDRip.XViD-ETRG torrent
Rogue.Cell.2019.HDRip.XviD.AC3-EVO torrent
Spider-Man.Far.from.Home.2019.BRRip.XViD.AC3-ETRG torrent

ETTV Recommended HD
A.Score.to.Settle.2019.1080p.BluRay.x264-ROVERS[EtHD] torrent
Annabelle Comes Home.2019.1080p.WEB-DL.H264.AC3-EVO[EtHD] torrent
Live.By.Night.2016.BDRip.1080p.x264.Multilang.TrueHD.DTS.DD5.1.Gerald torrent
Spider-Man.Far.from.Home.2019.1080p.BluRay.x264-SPARKS[EtHD] torrent

ETTV Recommended UHD
Power Rangers 2017.MULTi.UHD.Blu-ray.2160p.HDR.Atmos.7.1.HEVC-DDR torrent
Smurfs - The Lost Village 2017.MULTi.UHD.Blu-ray.2160p.HDR.Atmos.7.1.HEVC-DDR torrent
Resident Evil Vendetta 2017.MULTi.UHD.Blu-ray.2160p.HDR.Atmos.7.1.HEVC-DDR torrent
Rough Night.2017.MULTi.UHD.Blu-ray.2160p.HDR.Atmos.7.1.HEVC-DDR torrent

ETTV Recommended Cam
It Chapter Two 2019.HDCAM.x264.AC3-ETRG torrent
Downton Abbey 2019 720p HDCAM-GETB8 torrent
Hustlers 2019 HDCAM x264 AC3-ETRG torrent
Rambo Last Blood 2019 HDCAM x264 AC3-ETRG torrent

ETTV Recommended Foreign
Dream Girl 2019 Hindi 720p Pre-DVD Rip x264 AAC { TaRa }.mkv torrent
Jin-Roh.The.Wolf.Brigade.1999.BDRip 1080p Ita Jap x265-NAHOM torrent
Back Street Girls Gokudols The Movie 2019 720p BluRay x264 Ganool torrent
Kabir.Singh.2019.Hindi.HDRip..x264.AC3-ETRG torrent


Download Torrent "Lethal Weapon S02E19 (1080p AMZN WEB-DL x265 HEVC 10bit AC3 5.1 Qman) [UTR]"

IMDB Details
Description:

N/A

Genre:

N/A

Download Torrent (Magnet)
Download Torrent (File)
Seeds: 8
Leechers: 11
Completed: 812 
Last Checked: 20-04-2018 08:15:32


Details
Title:Lethal Weapon S02E19 (1080p AMZN WEB-DL x265 HEVC 10bit AC3 5.1 Qman) [UTR]
Description:





Media Information
General
Format : Matroska
Format version : Version 4 / Version 2
File size : 921 MiB
Duration : 43 min 35 s
Overall bit rate : 2 954 kb/s
Encoded date : UTC 2018-04-19 16:44:43
Writing application : mkvmerge v22.0.0 ('At The End Of The World') 64-bit
Writing library : libebml v1.3.5 + libmatroska v1.4.8

Video
ID : 1
Format : HEVC
Format/Info : High Efficiency Video Coding
Format profile : Main [email protected]@Main
Codec ID : V_MPEGH/ISO/HEVC
Duration : 43 min 35 s
Bit rate : 2 312 kb/s
Width : 1 920 pixels
Height : 1 080 pixels
Display aspect ratio : 16:9
Frame rate mode : Constant
Frame rate : 23.976 (24000/1001) FPS
Color space : YUV
Chroma subsampling : 4:2:0
Bit depth : 10 bits
Bits/(Pixel*Frame) : 0.046
Stream size : 721 MiB (78%)
Writing library : x265 2.7+340-aa9102400f24:[Windows][MSVC 1914][64 bit] 10bit
Encoding settings : cpuid=1111039 / frame-threads=2 / numa-pools=4 / wpp / no-pmode / no-pme / no-psnr / no-ssim / log-level=2 / input-csp=1 / input-res=1920x1080 / interlace=0 / total-frames=62712 / level-idc=0 / high-tier=1 / uhd-bd=0 / ref=4 / no-allow-non-conformance / no-repeat-headers / annexb / no-aud / no-hrd / info / hash=0 / no-temporal-layers / open-gop / min-keyint=23 / keyint=250 / gop-lookahead=0 / bframes=8 / b-adapt=2 / b-pyramid / bframe-bias=0 / rc-lookahead=25 / lookahead-slices=4 / scenecut=40 / radl=0 / no-intra-refresh / ctu=64 / min-cu-size=8 / rect / no-amp / max-tu-size=32 / tu-inter-depth=1 / tu-intra-depth=1 / limit-tu=0 / rdoq-level=2 / dynamic-rd=0.00 / no-ssim-rd / signhide / no-tskip / nr-intra=0 / nr-inter=0 / no-constrained-intra / strong-intra-smoothing / max-merge=3 / limit-refs=3 / limit-modes / me=3 / subme=3 / merange=57 / temporal-mvp / weightp / no-weightb / no-analyze-src-pics / deblock=0:0 / sao / no-sao-non-deblock / rd=4 / no-early-skip / rskip / no-fast-intra / no-tskip-fast / no-cu-lossless / no-b-intra / no-splitrd-skip / rdpenalty=0 / psy-rd=2.00 / psy-rdoq=2.00 / no-rd-refine / no-lossless / cbqpoffs=0 / crqpoffs=0 / rc=crf / crf=21.5 / qcomp=0.60 / qpstep=4 / stats-write=0 / stats-read=0 / ipratio=1.40 / pbratio=1.30 / aq-mode=2 / aq-strength=1.00 / cutree / zone-count=0 / no-strict-cbr / qg-size=32 / no-rc-grain / qpmax=69 / qpmin=0 / no-const-vbv / sar=0 / overscan=0 / videoformat=5 / range=0 / colorprim=2 / transfer=2 / colormatrix=2 / chromaloc=0 / display-window=0 / max-cll=0,0 / min-luma=0 / max-luma=1023 / log2-max-poc-lsb=8 / vui-timing-info / vui-hrd-info / slices=1 / no-opt-qp-pps / no-opt-ref-list-length-pps / no-multi-pass-opt-rps / scenecut-bias=0.05 / no-opt-cu-delta-qp / no-aq-motion / no-hdr / no-hdr-opt / no-dhdr10-opt / no-idr-recovery-sei / analysis-reuse-level=5 / scale-factor=0 / refine-intra=0 / refine-inter=0 / refine-mv=0 / no-limit-sao / ctu-info=0 / no-lowpass-dct / refine-mv-type=0 / copy-pic=1 / max-ausize-factor=1.0 / no-dynamic-refine / no-single-sei
Language : English
Default : Yes
Forced : No

Audio
ID : 2
Format : E-AC-3
Format/Info : Enhanced Audio Coding 3
Format settings, Endianness : Big
Codec ID : A_EAC3
Duration : 43 min 35 s
Bit rate mode : Constant
Bit rate : 640 kb/s
Channel(s) : 6 channels
Channel positions : Front: L C R, Side: L R, LFE
Sampling rate : 48.0 kHz
Frame rate : 187.500 FPS (256 spf)
Compression mode : Lossy
Stream size : 200 MiB (22%)
Language : English
Default : Yes
Forced : No

Subtitle
ID : 3
Format : UTF-8
Codec ID : S_TEXT/UTF8
Codec ID/Info : UTF-8 Plain Text
Duration : 42 min 32 s
Bit rate : 84 b/s
Count of elements : 940
Stream size : 26.3 KiB (0%)
Language : English
Default : Yes
Forced : No

Source Information
Release: Unknown Source/NO-GROUP



Note From UTR We have no issue with individuals posting or re-uploading our torrents on a platform we aren't on. However, if this is something you'd like to do, please do so in a 'as-is' format. We ask that you do not create a new torrent, include all descriptions you see above including the UTR logo, tags, notes and screenshots. If you'd like to become a permanent poster on a website we don't post to, feel free to get in contact with a UniTeam member.

If possible please donate: BTC 1QA5fum5AyXvWzdVCkQzUNvw3Ef15fHRaR



Category:TV > HEVC/x265
Lang:English  English
Total Size:921 MB
Info Hash:1d514d3f7a816e05f36825a0121a463ffc11b1b7
Added By:UTR
Date Added:20-04-2018 08:15:29

Files

File List: 
 File Size
Lethal.Weapon.S02E19.1080p.AMZN.WEB-DL.x265.10bit.EAC3.6.0-Qman[UTR].mkv921 MB



Loading...
Comments

There are currently no comments. Be the first one to write something !