snowfall s03e02 big brother s21e10 rocketman 2019 toy story 4 2019 the inbetween s01e06 annabelle comes home 2019 suits s09e01 aladdin 2019 shazam 2019 2.0 (2018) big little lies s02e06 the lion king 2019 Suits  wwe Stranger things krypton hellboy 2019 ettv dc week proper pandora s01e01 krypton s02e06 big bang theory español yesterday 2019 captain marvel 2019 endgame anna 2019 xxx dumbo 2019 godzilla king of the monsters 2019 avengers endgame 2019 ddr kabir singh Shazam shaft 2019 dark phoenix 2019 midsommar 2019 John wick stuber 2019 alita battle angel 2019 John wick 3 hindi archer animal kingdom s04e08 spider man far from home 2019 evo childs play 2019 etrg the intruder 2019 big little lies us 2019 the handmaids tale s03e09 ethd alita yellowstone s02e04 The Handmaids Tale hellboy yellowstone long shot 2019 the 100 s06e10 once upon a time in hollywood 2019 The 100 men in black international 2019 brightburn 2019 john wick chapter 3 – parabellum 2019 avengers endgame pearson s01e01 DDR ma 2019 yts etmovies crawl 2019 arrow español 
Warning! Use a VPN When Downloading Torrents!
Your IP Address is 3.92.28.84. Location is United States
Your Internet Provider is tracking your torrent activity! Hide your IP ADDRESS with a VPN!
We strongly recommend using ExpressVPN to anonymize your torrenting. 30 Day Money Back Guarantee!
Try it Now!
ETTV Recommended TV Shows
The.InBetween.S01E06.HDTV.x264-KILLERS[ettv] torrent
Yellowstone.2018.S02E04.WEBRip.x264-KOMPOST[ettv] torrent
iZombie.S05E11.HDTV.x264-SVA[ettv] torrent
Elementary.S07E09.HDTV.x264-KILLERS[ettv] torrent
The.Outpost.S02E02.HDTV.x264-SVA[ettv] torrent
Queen.of.the.South.S04E07.720p.HDTV.x264-SVA[ettv] torrent

ETTV Recommended SD
El.Chicano.2019.DVDRip.XviD.AC3-EVO torrent
Purge.Of.Kingdoms.2019.HDRip.AC3.x264-CMRG[EtMovies] torrent
Supervized.2019.HDRip.XviD.AC3-EVO[EtMovies] torrent
The.Big.Bad.Fox.And.Other.Tales.2019.HDRip.XviD.AC3-EVO[EtMovies] torrent

ETTV Recommended HD
Above the Shadows.2019.1080p.WEB-DL.H264.AC3-EVO[EtHD] torrent
Bottom.of.the.9th.2019.1080p.WEB-DL.DD5.1.H264-CMRG[EtHD] torrent
Into.the.Ashes.2019.1080p.WEB-DL.DD5.1.H264-CMRG[EtHD] torrent
Sword.Of.Trust.2019.1080p.WEB-DL.H264.AC3-EVO[EtHD] torrent

ETTV Recommended UHD
Hellboy 2019.MULTi.UHD.BluRay.2160p.HDR.Atmos.7.1.HEVC-DDR torrent
Breakthrough 2019.MULTi.UHD.BluRay.2160p.HEVC.DTS-HD.MA7.1.[En+Hindi+Fr+Sp+Ur+Tur]-DDR torrent
The Quake 2018.MULTI.2160p.HDR.WEBRip.DTS-HDMA.5.1.HEVC-DDR torrent
Moon 2009.MULTi.UHD.Blu-ray.2160p.HDR.Atmos.7.1.HEVC-DDR torrent

ETTV Recommended Cam
Crawl 2019 720p HDCAM-1XBET torrent
Stuber 2019 720p HDCAM-1XBET torrent
Spider-Man Far From Home 2019 HD-TC x264 AC3-ETRG torrent
The Lion King 2019 720p HDCAM-1XBET torrent

ETTV Recommended Foreign
The.Dark.Knight.(2008).[IMAX.1080p].[Dual.Audio].[Org.DD].{Hindi.2.0+Eng.6Ch}.-~{DOOMSDAY}~-. torrent
The.Beast.2019.HDRip.720p-Mkvking torrent
Indias Most Wanted (2019) Hindi 720p HDRip x264 AAC ESubs -UnknownStAr [Telly] torrent
The Rescuers (1977) x264 720p BluRay Eng Subs {Dual Audio} [Hindi ORG DD 2.0 + English 2.0] Exclusive By DREDD torrent


Download Torrent "Game of Thrones S01E02 720p BluRay x264 AC3 ESub Dual Audio [Hindi + Englis..."

IMDB Details
Description:

Get to know the major power players in Season 2 of 'Game of Thrones' with these seven profiles, including Renly and Stannis Baratheon, Robb Stark, Theon Greyjoy and more.

Genre:

Documentary, Short

Download Torrent (Magnet)
Download Torrent (File)
Seeds: 316
Leechers: 114
Completed: 5,398 
Last Checked: 17-06-2018 09:32:26


Loading...
Details
Title:Game of Thrones S01E02 720p BluRay x264 AC3 ESub Dual Audio [Hindi + Englis...
Description:

Game of Thrones S01E02 720p BluRay x264 AC3 ESub Dual Audio [Hindi + English] 525MB[CraZzyBoY]] [First On Net]
Like FaceBook Page



Visit & Support
Visit & Support www.MoviezAddiction.website
Buy Reliable VPS/RDP
Episode 2 Sample
Thanks Khiladi786 For Hindi Audio
Please Note: 18+ Scene Is In English
3rd Episode Coming Soon




Game of Thrones S01E02 720p BluRay x264 AC3 ESub Dual Audio [Hindi + English] 525MB[CraZzyBoY]] [First On Net]

[img=" https://extraimage.net/images/2018/06/17/e4dbed882b433b6d3af45230d4c85247.jpg" alt=""]


Take It Or Leave It
Like Our Work Just leave Only 1 Valuable Comment
Keep Visit and Support https://moviezaddiction.website


General

Format : Matroska
Format version : Version 4 / Version 2
File size : 526 MiB
Duration : 55 min 17 s
Overall bit rate : 1 329 kb/s
Movie name : MoviezAddiction.Website | Game of Thrones S01E02 720p BluRay x264 AC3 ESub Dual Audio [Hindi + English] 525MB
Encoded date : UTC 2018-06-16 19:18:14
Writing application : mkvmerge v20.0.0 ('I Am The Sun') 64-bit
Writing library : libebml v1.3.5 + libmatroska v1.4.8

Video
ID : 2
Format : AVC
Format/Info : Advanced Video Codec
Format profile : [email protected]
Format settings : CABAC / 5 Ref Frames
Format settings, CABAC : Yes
Format settings, ReFrames : 5 frames
Codec ID : V_MPEG4/ISO/AVC
Duration : 55 min 17 s
Bit rate : 1 071 kb/s
Width : 1 280 pixels
Height : 720 pixels
Display aspect ratio : 16:9
Frame rate mode : Constant
Frame rate : 23.976 (24000/1001) FPS
Color space : YUV
Chroma subsampling : 4:2:0
Bit depth : 8 bits
Scan type : Progressive
Bits/(Pixel*Frame) : 0.048
Stream size : 424 MiB (81%)
Title : MoviezAddiction.Website
Writing library : x264 core 133 r2334 a3ac64b
Language : English
Default : Yes
Forced : No

Audio #1
ID : 1
Format : AC-3
Format/Info : Audio Coding 3
Codec ID : A_AC3
Duration : 55 min 17 s
Bit rate mode : Constant
Bit rate : 192 kb/s
Channel(s) : 6 channels
Channel positions : Front: L C R, Side: L R, LFE
Sampling rate : 48.0 kHz
Frame rate : 31.250 FPS (1536 SPF)
Bit depth : 16 bits
Compression mode : Lossy
Delay relative to video : 10 ms
Stream size : 75.9 MiB (14%)
Title : fb/HindiHollywood
Language : Hindi
Service kind : Complete Main
Default : Yes
Forced : No

Audio #2
ID : 3
Format : AAC
Format/Info : Advanced Audio Codec
Format profile : HE-AAC / LC
Format settings : Explicit
Codec ID : A_AAC-2
Duration : 55 min 17 s
Bit rate : 64.0 kb/s
Channel(s) : 2 channels
Channel positions : Front: L R
Sampling rate : 48.0 kHz / 24.0 kHz
Frame rate : 23.438 FPS (1024 SPF)
Compression mode : Lossy
Delay relative to video : 31 ms
Stream size : 25.3 MiB (5%)
Title : MoviezAddiction.Website
Language : English
Default : No
Forced : No

Text
ID : 4
Format : UTF-8
Codec ID : S_TEXT/UTF8
Codec ID/Info : UTF-8 Plain Text
Duration : 53 min 23 s
Bit rate : 51 b/s
Count of elements : 625
Stream size : 20.0 KiB (0%)
Title : MoviezAddiction.Website
Language : English
Default : Yes
Forced : No





"The Kingsroad" is the second episode of the HBO medieval fantasy television series Game of Thrones, first aired on April 24, 2011. It was written by the show creators David Benioff and D. B. Weiss, and directed by Tim Van Patten.[2]

Nearly all the action of the episode happens during travel: Eddard Stark and his daughters accompany the king's entourage to King's Landing to occupy the post of Hand of the King, Tyrion Lannister joins Jon in his travel to the Wall, and the newly wed Daenerys goes with her husband's khalasar to the city of Vaes Dothrak. Meanwhile, in Winterfell a grieving Catelyn Stark watches over her unconscious son Bran.

Viewing figures were unchanged from the premiere, despite the second episode airing on Easter Sunday. Critical reception to the episode was favorable. Filming locations included several notable Northern Ireland locations, and the filming itself was complicated by the difficulty of integrating canine actors into several crucial scenes. In the United States, the episode achieved a viewership of 2.2 million in its initial broadcast.







[img=" https://i1.wp.com/i.imgur.com/Ds7bb.gif" alt=""]





Category:TV > HD/X264/H264
Lang:Hindi  Hindi
Total Size:526 MB
Info Hash:928619841a8152923ef2418d7eb22f8667b1c491
Added By:hevclovers
Date Added:17-06-2018 09:32:21

Files

File List: 
 File Size
MoviezAddiction - Download Watch Online.url58.00 B
MoviezAddiction.Website Game of Thrones S01E02 720p BluRay x264 AC3 ESub Dual Audio [Hindi + English] 525MB.mkv526 MB
MoviezAddiction.Website.txt159.00 B
Thanks Note.txt880.00 B
Torrent Seeded By BestBuyRDP.com.txt44.00 B



Loading...
Comments

There are currently no comments. Be the first one to write something !