NCIS S17E13 ethd midway 2019 Underwater 2020 vikings Chicago PD evo The Gentlemen 2020 Dolittle 2020 Bad Boys for Life 2020 rq.mp4 Chicago Fire Richard Jewell 2019 Legends of Tomorrow Arrow S08E09 1917 2019 ddr star trek picard STUMPTOWN the good doctor s03e12 Jojo Rabbit 2019 dc week Modern Family S11E12 Gemini Man 2019 This Is Us S04E11 FBI Most Wanted S01E03 Ford v Ferrari 2019 Picard New Amsterdam S02E11 The Magicians S05E02 Parasite 2019 Knives Out 2019 Chicago Med S05E12 arrow etrg ettv Emergence S01E12 xxx etmovies The Resident S03E13 Terminator Dark Fate 2019 marvel week Project Blue Book s02e01 modern family S.W.A.T. S03E12 maleficent mistress of evil 2019 Star Trek Picard S01E01 Jumanji The Next Level 2019 FBI S02E13 power s06e13 Bombshell 2019 The Outsider S01E03 doctor sleep 2019 1917  doctor sleep frozen ii 2019 Criminal Minds S15E04 Chicago P.D. S07E12 hindi 68 Whiskey S01E02 stumptown s01e12 yts Chicago Fire S08E12 The Curse of Oak Island S07E10 A Fall From Grace 2020 Vikings S06E08 joker 2019 Little Women 2019 Just Mercy 2019 motherless brooklyn 2019 charlies angels 2019 star wars the rise of skywalker 2019 
Warning! Use a V.P.N When Downloading Torrents!
Your IP Address is 18.206.12.79. Location is United States
Your Internet Provider is tracking your torrent activity! Hide your IP ADDRESS with a V.P.N!
We strongly recommend using ExpressV.P.N to anonymize your torrenting. 30 Day Money Back Guarantee!
Try it Now!
ETTV Recommended TV Shows
Supernatural.S15E10.HDTV.x264-SVA[ettv] torrent
The.Good.Place.S04E12.HDTV.x264-SVA[ettv] torrent
Deputy.S01E04.WEB.x264-TBS[ettv] torrent
Station.19.S03E01.HDTV.x264-KILLERS[ettv] torrent
Legacies.S02E10.HDTV.x264-SVA[ettv] torrent
Greys.Anatomy.S16E10.HDTV.x264-SVA[ettv] torrent

ETTV Recommended SD
Midway.to.Love.2019.HDRip.XviD.AC3-EVO torrent
Dance.Together.2019.HDRip.XviD.AC3-EVO torrent
Elsewhere.2020.HDRip.XviD.AC3-EVO torrent
John.Henry.2019.HDRip.XviD.AC3-EVO torrent

ETTV Recommended HD
Boris.and.the.Bomb.2019.720p.AMZN.WEB-DL.x264.AAC-ETRG torrent
Cats.2019.HC.720p.HDRip.X264 AC3-ETRG torrent
John.Henry.2019.1080p.WEB-DL.H264.AC3-EVO[EtHD] torrent
Elsewhere.2020.1080p.WEB-DL.H264.AC3-EVO[EtHD] torrent

ETTV Recommended UHD
Togo 2019.4K.HDR.2160p.WEBDL Sub Ita x265-NAHOM torrent
The.Witcher.S01.2160p.HDR.NF.WEBRip.DDP.Atmos.5.1.x265-TrollUHD torrent
Troop.Zero.2020.2160p.NF.WEBRip.DDP5.1.x264-AJP69 torrent
Pan's.Labyrinth.2006.4K.HDR.2160p.BDRip Ita Spa x265-NAHOM torrent

ETTV Recommended Cam
Dolittle 2020 HDCAM x264 AC3-ETRG torrent
Seberg 2019 HDCAM x264 AC3-ETRG torrent
The Grudge 2020 720p HDTC-GETB8 torrent
Bad Boys for Life 2020 HDCAM x264 AC3-ETRG torrent

ETTV Recommended Foreign
Jai Mummy Di (2020) V2 Hindi 720p PreDVD x264 AAC 1.2GB NO LOGO CineVood Exclusive torrent
Gehenna : Where Death Lives (2016) 720p WEBRip x264 Eng Subs [Dual Audio] [Hindi DD 2.0 - English 5.1] Exclusive By -=!Dr.STAR!=- torrent
Jay and Silent Bob Reboot (2019) AC3 5.1 ITA.ENG 1080p H265 sub ita(tradotti).eng Sp33dy94 MIRCrew torrent
Hotel Mumbai (2018) Hindi 1080p Zee5 WEB-DL x264 AAC CineVood torrent


Download Torrent "Mad Max Fury Road (2015) (1080p BluRay 10bit x265 HEVC AAC 7.1 Qman) [UTR-H..."

IMDB Details
Description:

N/A

Genre:

N/A

Download Torrent (Magnet)
Download Torrent (File)
Seeds: 264
Leechers: 129
Completed: 1,680 
Last Checked: 08-09-2018 14:42:36


Loading...
Details
Title:Mad Max Fury Road (2015) (1080p BluRay 10bit x265 HEVC AAC 7.1 Qman) [UTR-H...
Description:








Media Information
General
Format : Matroska
Format version : Version 4 / Version 2
File size : 10.7 GiB
Duration : 2 h 0 min
Overall bit rate : 12.8 Mb/s
Encoded date : UTC 2018-09-05 18:40:39
Writing application : mkvmerge v26.0.0 ('In The Game') 64-bit
Writing library : libebml v1.3.6 + libmatroska v1.4.9

Video
ID : 1
Format : HEVC
Format/Info : High Efficiency Video Coding
Format profile : Main [email protected]@Main
Codec ID : V_MPEGH/ISO/HEVC
Duration : 2 h 0 min
Bit rate : 11.3 Mb/s
Width : 1 920 pixels
Height : 1 080 pixels
Display aspect ratio : 16:9
Frame rate mode : Constant
Frame rate : 23.976 (24000/1001) FPS
Color space : YUV
Chroma subsampling : 4:2:0
Bit depth : 10 bits
Bits/(Pixel*Frame) : 0.228
Stream size : 9.54 GiB (89%)
Writing library : x265 2.8+66-88ee12651e30:[Windows][MSVC 1915][64 bit] 10bit
Encoding settings : cpuid=1111039 / frame-threads=4 / numa-pools=16 / wpp / no-pmode / no-pme / no-psnr / no-ssim / log-level=2 / input-csp=1 / input-res=1920x1080 / interlace=0 / total-frames=173188 / level-idc=0 / high-tier=1 / uhd-bd=0 / ref=4 / no-allow-non-conformance / no-repeat-headers / annexb / no-aud / no-hrd / info / hash=0 / no-temporal-layers / open-gop / min-keyint=23 / keyint=250 / gop-lookahead=0 / bframes=8 / b-adapt=2 / b-pyramid / bframe-bias=0 / rc-lookahead=100 / lookahead-slices=4 / scenecut=40 / radl=0 / no-intra-refresh / ctu=64 / min-cu-size=8 / rect / amp / max-tu-size=32 / tu-inter-depth=1 / tu-intra-depth=1 / limit-tu=0 / rdoq-level=2 / dynamic-rd=0.00 / no-ssim-rd / signhide / no-tskip / nr-intra=0 / nr-inter=0 / no-constrained-intra / no-strong-intra-smoothing / max-merge=3 / limit-refs=3 / limit-modes / me=3 / subme=5 / merange=57 / temporal-mvp / weightp / no-weightb / no-analyze-src-pics / deblock=-3:-3 / no-sao / no-sao-non-deblock / rd=4 / no-early-skip / no-rskip / no-fast-intra / no-tskip-fast / no-cu-lossless / b-intra / no-splitrd-skip / rdpenalty=0 / psy-rd=1.00 / psy-rdoq=5.00 / no-rd-refine / no-lossless / cbqpoffs=-3 / crqpoffs=-3 / rc=crf / crf=19.0 / qcomp=0.60 / qpstep=4 / stats-write=0 / stats-read=0 / ipratio=1.40 / pbratio=1.30 / aq-mode=2 / aq-strength=1.00 / cutree / zone-count=0 / no-strict-cbr / qg-size=32 / no-rc-grain / qpmax=69 / qpmin=0 / no-const-vbv / sar=0 / overscan=0 / videoformat=5 / range=0 / colorprim=2 / transfer=2 / colormatrix=2 / chromaloc=0 / display-window=0 / max-cll=0,0 / min-luma=0 / max-luma=1023 / log2-max-poc-lsb=8 / vui-timing-info / vui-hrd-info / slices=1 / no-opt-qp-pps / no-opt-ref-list-length-pps / no-multi-pass-opt-rps / scenecut-bias=0.05 / no-opt-cu-delta-qp / no-aq-motion / no-hdr / no-hdr-opt / no-dhdr10-opt / no-idr-recovery-sei / analysis-reuse-level=5 / scale-factor=0 / refine-intra=0 / refine-inter=0 / refine-mv=0 / no-limit-sao / ctu-info=0 / no-lowpass-dct / refine-mv-type=0 / copy-pic=1 / max-ausize-factor=1.0 / no-dynamic-refine / no-single-sei
Language : English
Default : Yes
Forced : No

Audio
ID : 2
Format : AAC
Format/Info : Advanced Audio Codec
Format profile : LC
Codec ID : A_AAC
Duration : 2 h 0 min
Bit rate : 1 410 kb/s
Channel(s) : 7 channels
Channel(s)_Original : 8 channels
Channel positions : Front: L C R, Side: L R, Back: L R, LFE
Sampling rate : 48.0 kHz
Frame rate : 46.875 FPS (1024 spf)
Compression mode : Lossy
Delay relative to video : 9 ms
Stream size : 1.19 GiB (11%)
Language : English
Default : Yes
Forced : No

Subtitle
ID : 3
Format : PGS
Muxing mode : zlib
Codec ID : S_HDMV/PGS
Codec ID/Info : Picture based subtitle format used on BDs/HD-DVDs
Duration : 2 h 0 min
Bit rate : 17.6 kb/s
Count of elements : 2334
Stream size : 15.1 MiB (0%)
Language : English
Default : Yes
Forced : No

Menu
00:00:00.000 : en:1
00:10:42.475 : en:2
00:19:06.437 : en:3
00:30:12.310 : en:4
00:42:55.615 : en:5
00:49:33.345 : en:6
00:59:55.175 : en:7
01:13:02.545 : en:8
01:22:08.924 : en:9
01:30:02.731 : en:10
01:40:39.867 : en:11
01:49:12.546 : en:12
01:53:06.279 : en:13

Source Information
Release: Unknown Source/NO-GROUP


Note From UTR
We have no issue with individuals posting or re-uploading our torrents on a platform we aren't on. However, if this is something you'd like to do, please do so in a 'as-is' format. We ask that you do not create a new torrent, include all descriptions you see above including the UTR logo, tags, notes and screenshots. If you'd like to become a permanent poster on a website we don't post to, feel free to get in contact with a UniTeam member.

If possible please donate: BTC 1QA5fum5AyXvWzdVCkQzUNvw3Ef15fHRaR


Category:Movies > HEVC/x265
Lang:English  English
Total Size:10.74 GB
Info Hash:2edfa911cc394ca8db95d0e2d2acbaf2d4508e41
Added By:UTRHD
Date Added:08-09-2018 14:42:33

Files

File List: 
 File Size
Mad.Max.Fury.Road.(2015).1080p.BluRay.10-bit.x265.AAC.7.1 Qman[UTR].mkv10.74 GB



Loading...
Comments

There are currently no comments. Be the first one to write something !