the morning show ford v ferrari 2019 WATCHMEN See s01e05 titans see seal team harriet 2019 terminator dark fate 2019 Supernatural S15E05 blue bloods s10e08 xxx Charmed it chapter two 2019 the mandalorian s01e02 zombieland double tap 2019 gemini man 2019 f1 Greys anatomy Wwe once upon a time in hollywood black and blue 2019 angel has fallen the blacklist ddr etrg legacies hustlers 2019 doctor sleep 2019 rick and morty midway 2019 Van Helsing the mandalorian blacklist ettv the mandalorian s01e01 once upon a time in hollywood 2019 formula 1 silicon valley Hindi the man in the high castle the lion king 2019 ethd maleficent mistress of evil 2019 frozen ii 2019 evo gold rush fast furious presents hobbs shaw 2019 joker 2019 supernatural south park last christmas 2019 for all mankind the blacklist s07e07 titans s02e11 charlies angels 2019 etmovies The Flash 0 good boys 2019 limetown angel has fallen 2019 joker rambo last blood 2019 mandalorian s01e02 mandalorian His Dark Materials yts gemini man the walking dead the irishman 2019 
Warning! Use a V.P.N When Downloading Torrents!
Your IP Address is 3.93.74.227. Location is United States
Your Internet Provider is tracking your torrent activity! Hide your IP ADDRESS with a V.P.N!
We strongly recommend using ExpressV.P.N to anonymize your torrenting. 30 Day Money Back Guarantee!
Try it Now!
ETTV Recommended TV Shows
Magnum.P.I.2018.S02E08.HDTV.x264-SVA[ettv] torrent
Blue.Bloods.S10E08.HDTV.x264-SVA[ettv] torrent
Shameless.US.S10E02.WEB.h264-TBS[ettv] torrent
Ray.Donovan.S07E01.WEB.h264-TBS[ettv] torrent

ETTV Recommended SD
Gemini Man.2019.HC.HDRip.XviD.AC3-EVO[EtMovies] torrent
Klaus.2019.HDRip.XviD.AC3-EVO torrent
Crown.Vic.2019.HDRip.XviD.AC3-EVO torrent
Line.Of.Duty.2019.HDRip.XviD.AC3-EVO torrent

ETTV Recommended HD
The.Current.War.2017.Bluray.1080p.DTS-HDMA.5.1.HEVC-DDR[EtHD] torrent
Isabelle.2019.1080p.Bluray.X264-EVO[EtHD] torrent
Wild.Rose.2018.MULTi.En.Fr.1080p.Bluray.DTS-HDMA.5.1.HEVC-DDR[EtHD] torrent
Brittany.Runs.A.Marathon.2019.1080p.WEB-DL.DD+5.1.H264-SDRR[EtHD] torrent

ETTV Recommended UHD
T2 Trainspotting.2017.MULTi.UHD.Blu-ray.2160p.HDR.Atmos.7.1.HEVC-DDR torrent
The Accountant.2016.MULTi.UHD.Blu-ray.2160p.HDR.DTS-HDMA.7.1.HEVC-DDR torrent
The Boss Baby 2017.MULTi.UHD.Blu-ray.2160p.HDR.Atmos.7.1.HEVC-DDR torrent
Three.Billboards.Outside.Ebbing.Missouri.2017.MULTi.UHD.Blu-ray.2160p.HDR.DTS-HDMA.5.1.HEVC-DDR torrent

ETTV Recommended Cam
Charlies Angels 2019 HDCAM x264 AC3-ETRG torrent
Motherless Brooklyn 2019 NEW HDCAM x264-ETRG torrent
Ford v Ferrari 2019 720p NEW HDCAM V2-GETB8 torrent
Hustlers 2019 NEW 720p HD-TS-GET torrent

ETTV Recommended Foreign
I Know You 2019 WebRip Hindi 720p x264 AAC ESub - mkvCinemas [Telly] torrent
Prassthanam.2019.1080p.AMZN.WEB-DL.DD+5.1.x264-Telly[EtHD] torrent
House.Arrest.2019.1080p.NF.WEB-DL.HIN-Multi.ATMOS.5.1-DD+5.1.x264-Telly[EtHD] torrent
Dosti Ke Side Effects2019.Hindi.1080p.WEB-DL.x264.AAC -DDR[EtHD] torrent


Download Torrent "Kill the Irishman (2011) (1080p BluRay 10bit x265 HEVC TrueHD 5.1 Qman) [UT..."

IMDB Details
Description:

N/A

Genre:

N/A

Download Torrent (Magnet)
Download Torrent (File)
Seeds: 24
Leechers: 2
Completed: 480 
Last Checked: 25-09-2018 16:42:35


Loading...
Details
Title:Kill the Irishman (2011) (1080p BluRay 10bit x265 HEVC TrueHD 5.1 Qman) [UT...
Description:





Media Information
General
Format : Matroska
Format version : Version 4 / Version 2
File size : 9.60 GiB
Duration : 1 h 46 min
Overall bit rate mode : Variable
Overall bit rate : 12.9 Mb/s
Encoded date : UTC 2018-09-17 16:17:16
Writing application : mkvmerge v26.0.0 ('In The Game') 64-bit
Writing library : libebml v1.3.6 + libmatroska v1.4.9

Video
ID : 1
Format : HEVC
Format/Info : High Efficiency Video Coding
Format profile : Main [email protected]@Main
Codec ID : V_MPEGH/ISO/HEVC
Duration : 1 h 46 min
Bit rate : 9 633 kb/s
Width : 1 920 pixels
Height : 1 080 pixels
Display aspect ratio : 16:9
Frame rate mode : Constant
Frame rate : 23.976 (24000/1001) FPS
Color space : YUV
Chroma subsampling : 4:2:0
Bit depth : 10 bits
Bits/(Pixel*Frame) : 0.194
Stream size : 7.16 GiB (75%)
Writing library : x265 2.8+68-fa57fa584898:[Windows][MSVC 1915][64 bit] 10bit
Encoding settings : cpuid=1111039 / frame-threads=4 / numa-pools=16 / wpp / no-pmode / no-pme / no-psnr / no-ssim / log-level=2 / input-csp=1 / input-res=1920x1080 / interlace=0 / total-frames=153072 / level-idc=0 / high-tier=1 / uhd-bd=0 / ref=4 / no-allow-non-conformance / no-repeat-headers / annexb / no-aud / no-hrd / info / hash=0 / no-temporal-layers / open-gop / min-keyint=23 / keyint=250 / gop-lookahead=0 / bframes=8 / b-adapt=2 / b-pyramid / bframe-bias=0 / rc-lookahead=80 / lookahead-slices=4 / scenecut=40 / radl=0 / no-intra-refresh / ctu=64 / min-cu-size=8 / no-rect / no-amp / max-tu-size=32 / tu-inter-depth=1 / tu-intra-depth=1 / limit-tu=0 / rdoq-level=2 / dynamic-rd=0.00 / no-ssim-rd / signhide / no-tskip / nr-intra=0 / nr-inter=0 / no-constrained-intra / no-strong-intra-smoothing / max-merge=3 / limit-refs=3 / limit-modes / me=3 / subme=6 / merange=57 / temporal-mvp / weightp / no-weightb / no-analyze-src-pics / deblock=-3:-3 / no-sao / no-sao-non-deblock / rd=4 / no-early-skip / no-rskip / no-fast-intra / no-tskip-fast / no-cu-lossless / b-intra / no-splitrd-skip / rdpenalty=0 / psy-rd=1.00 / psy-rdoq=5.00 / no-rd-refine / no-lossless / cbqpoffs=-3 / crqpoffs=-3 / rc=crf / crf=19.0 / qcomp=0.60 / qpstep=4 / stats-write=0 / stats-read=0 / ipratio=1.40 / pbratio=1.30 / aq-mode=2 / aq-strength=1.00 / cutree / zone-count=0 / no-strict-cbr / qg-size=32 / no-rc-grain / qpmax=69 / qpmin=0 / no-const-vbv / sar=0 / overscan=0 / videoformat=5 / range=0 / colorprim=2 / transfer=2 / colormatrix=2 / chromaloc=0 / display-window=0 / max-cll=0,0 / min-luma=0 / max-luma=1023 / log2-max-poc-lsb=8 / vui-timing-info / vui-hrd-info / slices=1 / no-opt-qp-pps / no-opt-ref-list-length-pps / no-multi-pass-opt-rps / scenecut-bias=0.05 / no-opt-cu-delta-qp / no-aq-motion / no-hdr / no-hdr-opt / no-dhdr10-opt / no-idr-recovery-sei / analysis-reuse-level=5 / scale-factor=0 / refine-intra=0 / refine-inter=0 / refine-mv=0 / no-limit-sao / ctu-info=0 / no-lowpass-dct / refine-mv-type=0 / copy-pic=1 / max-ausize-factor=1.0 / no-dynamic-refine / no-single-sei
Language : English
Default : Yes
Forced : No

Audio
ID : 2
Format : TrueHD
Codec ID : A_TRUEHD
Duration : 1 h 46 min
Bit rate mode : Variable
Bit rate : 3 206 kb/s
Maximum bit rate : 5 358 kb/s
Channel(s) : 6 channels
Channel positions : Front: L C R, Side: L R, LFE
Sampling rate : 48.0 kHz
Frame rate : 1 200.000 FPS (40 spf)
Compression mode : Lossless
Stream size : 2.38 GiB (25%)
Language : English
Default : Yes
Forced : No

Subtitle
ID : 3
Format : PGS
Muxing mode : zlib
Codec ID : S_HDMV/PGS
Codec ID/Info : Picture based subtitle format used on BDs/HD-DVDs
Duration : 1 h 39 min
Bit rate : 49.4 kb/s
Count of elements : 2835
Stream size : 35.1 MiB (0%)
Language : English
Default : Yes
Forced : No

Menu
00:00:00.000 : en:Chapter 01
00:08:24.587 : en:Chapter 02
00:18:34.321 : en:Chapter 03
00:26:06.064 : en:Chapter 04
00:33:04.232 : en:Chapter 05
00:44:06.935 : en:Chapter 06
00:52:25.725 : en:Chapter 07
00:59:29.899 : en:Chapter 08
01:07:21.996 : en:Chapter 09
01:17:30.395 : en:Chapter 10
01:27:40.255 : en:Chapter 11
01:39:44.228 : en:Chapter 12

Source Information
Release: Unknown Source/NO-GROUP


Note From UTR
We have no issue with individuals posting or re-uploading our torrents on a platform we aren't on. However, if this is something you'd like to do, please do so in a 'as-is' format. We ask that you do not create a new torrent, include all descriptions you see above including the UTR logo, tags, notes and screenshots. If you'd like to become a permanent poster on a website we don't post to, feel free to get in contact with a UniTeam member.

If possible please donate: BTC 1QA5fum5AyXvWzdVCkQzUNvw3Ef15fHRaR


Category:Movies > HEVC/x265
Lang:English  English
Total Size:9.60 GB
Info Hash:c8b576961230920c1fc9a94cedfc24237ff9aee9
Added By:UTRHD
Date Added:25-09-2018 16:42:31

Files

File List: 
 File Size
Kill.the.Irishman.(2011).1080p.BluRay.10-bit.x265.TrueHD.5.1 Qman[UTR].(2F423DED).mkv9.60 GB



Loading...
Comments

There are currently no comments. Be the first one to write something !