kgf sarkar Manikarnika star trek discovery thakrey Xxx kedarnath thackeray malayalam the accidental prime minister supernatural evo aquaman telugu odiyan the flash why cheat india great british bake off s09e10 vikings tushy 18.12 1080p.mp4-ktr charlie chaplin 2 1080P Hindi mirzapur ettv mr majnu the grand tour 2018 ita Adanga Maru Tin Star etmovies dtone uri EVO malayalam 2018 movies AQUAMAN ita Bumblebee ethd ITA zero etrg venom f2 1080p 2018 maari 2 Game Of Thrones viswasam TamilRockers Kannada simmba Kannada ddr simbha tushyraw 1080p.mp4-ktr mortal engines simba petta DTOne uri the surgical strike kung fu the legend Young justice tamil robot 2.0 it brazzers it 2017 2.0 thakre Njan Prakashan glass fgt bohemian rhapsody Star Trek Discovery S02E02 
Warning! Use a VPN When Downloading Torrents!
Your IP Address is 18.234.236.14. Location is United States
Your Internet Provider is tracking your torrent activity! Hide your IP ADDRESS with a VPN!
We strongly recommend using ExpressVPN to anonymize your torrenting. 30 Day Money Back Guarantee!
Try it Now!
ETTV Recommended TV Shows
DCs.Legends.of.Tomorrow.S04E12.HDTV.x264-SVA[ettv] torrent
Shadowhunters.The.Mortal.Instruments.S03E19.WEB.x264-TBS[ettv] torrent
The.Fix.2019.S01E06.HDTV.x264-KILLERS[ettv] torrent
Arrow.S07E19.HDTV.x264-SVA[ettv] torrent
Knightfall.S02E05.HDTV.x264-SHiTSPREAD[ettv] torrent
Into.the.Badlands.S03E14.WEB.h264-TBS[ettv] torrent

ETTV Recommended SD
Hell.Of.A.Night.2019.HDRip.XviD.AC3-EVO torrent
Arctic.2018.BRRip.XViD-ETRG torrent
The Lego Movie 2 The Second Part.2019.BRRip.XviD.AC3-EVO torrent
Destroyer.2019.BRRip.XviD.AC3-EVO torrent

ETTV Recommended HD
High Life 2018.Multi.1080p.Blu-ray.HEVC.DTS-HDMA.5.1-DDR torrent
Ruben Brandt Collector 2018.BluRay.1080p.HEVC.DTS-HD.MA.5.1-DDR torrent
Geralds Game.2017.1080p.NF.WebDL.AVC.DD.5.1-ETRG torrent
Homecoming A Film by Beyoncé.2019.1080p.NF.WebDL.AVC.DD.5.1-ETRG torrent

ETTV Recommended UHD
Captain America Civil War 2016.Multi.UHD.BluRay.2160p.HDR.HEVC.Atmos.7.1-DDR torrent
The.Karate.Kid.1984.Multi.UHD.Blu-ray.2160p.HDR.HEVC.Atmos.7.1-DDR torrent
Star Wars Episode II Attack of the Clones (2002) x 1600 (2160p) SDR 5.1 x265 10bit Phun Psyz torrent
The Mayflower Voyagers 1988.2160p.UHD.BluRay.HDR.HEVC.DTS-HD.MA.5.1-DDR torrent

ETTV Recommended Cam
Mia and the White Lion 2019 720p HDCAM-1XBET torrent
Hellboy.2019.HDCAM.v2.x264.AC3-ETRG torrent
The.Curse.of.La.Llorona.2019.HDCAM.x264.AC3-ETRG torrent
Captain.Marvel.2019.HDTC.x264 AC3-ETRG torrent

ETTV Recommended Foreign
Arrest Letter.2017.1080p.WebDL.ARABIC.AVC.DD.2.0.ESub-ETRG[EtHD] torrent
2.0 2018.Multi.1080p.AMZN.HDRipHEVC.DDP.5.1.[Hi+Ta+Te]-DDR torrent
Miss Lovely.2014.NF.WEB-DL.AVC.DD 5.1.MSubs.DDR torrent
Ratham (2019) 720p Hindi Dubbed HDTVRip x264 AAC 1GB - MovCr torrent


Download Torrent "Satyameva Jayate (2018) Hindi 1080p WEB-RIP x264 AC3 DD5.1 - ESUB ~ Ranvija..."

IMDB Details
Description:

N/A

Genre:

N/A

Download Torrent (Magnet)
Download Torrent (File)
Seeds: 196
Leechers: 301
Completed: 777 
Last Checked: 19-10-2018 05:57:48


Loading...
Details
Title:Satyameva Jayate (2018) Hindi 1080p WEB-RIP x264 AC3 DD5.1 - ESUB ~ Ranvija...
Description:




[color=#0000FF][b]Join My Facebook Group[/b][/color]

Satyameva Jayate (2018) Hindi 1080p WEB-RIP x264 AC3 DD5.1 - ESUB ~ Ranvijay

Buy RDP Online



Source : NbT
Format : Matroska
Format version : Version 4 / Version 2
File size : 4.34 GiB
Duration : 2 h 19 min
Overall bit rate : 4 449 kb/s
Movie name : Satyameva Jayate (2018) Hindi 1080p WEB-RIP x264 AC3 DD5.1 - ESUB ~ Ranvijay

Video
ID : 1
Format : AVC
Format/Info : Advanced Video Codec
Duration : 2 h 19 min
Bit rate : 4 000 kb/s
Width : 1 920 pixels
Height : 816 pixels
Display aspect ratio : 2.35:1
Frame rate mode : Constant
Frame rate : 24.000 FPS
Color space : YUV
Chroma subsampling : 4:2:0
Bit depth : 8 bits
Scan type : Progressive
Bits/(Pixel*Frame) : 0.106
Stream size : 3.90 GiB (90%)
Title : ~Ranvijay~

Audio
ID : 2
Format : AC-3
Format/Info : Audio Coding 3
Codec ID : A_AC3
Duration : 2 h 19 min
Bit rate mode : Constant
Bit rate : 448 kb/s
Channel(s) : 6 channels
Channel positions : Front: L C R, Side: L R, LFE
Sampling rate : 48.0 kHz
Frame rate : 31.250 FPS (1536 SPF)
Bit depth : 16 bits
Compression mode : Lossy
Stream size : 447 MiB (10%)
Title : ~Ranvijay~
Language : Hindi
Service kind : Complete Main
Default : Yes
Forced : Yes

Text
ID : 3
Format : UTF-8
Codec ID : S_TEXT/UTF8
Codec ID/Info : UTF-8 Plain Text
Duration : 2 h 12 min
Bit rate : 42 b/s
Count of elements : 1306
Stream size : 41.0 KiB (0%)
Title : ~Ranvijay~
Language : English
Default : Yes
Forced : Yes

Menu
00:00:00.000 : en:Commercial
00:01:05.000 : en:Studio Logos, Thank you Credits
00:03:07.000 : en:Scene 3
00:17:40.000 : en:Scene 4
00:28:29.000 : en:Scene 5
00:43:59.000 : en:Scene 6
01:00:56.000 : en:Scene 7
01:09:37.000 : en:Scene 8
01:22:03.000 : en:Scene 9
01:35:10.000 : en:Scene 10
01:44:53.000 : en:Scene 11
01:58:24.000 : en:Scene 12
02:17:06.000 : en:End Credits















Don't walk as you are king, walk as you don't care who the king is....!!





Category:Movies > HD 1080p
Lang:Hindi  Hindi
Total Size:4.36 GB
Info Hash:74dee75b3678c11b4f6525122bfc80bd9af05516
Added By:TheFighter
Date Added:19-10-2018 05:57:38

  

Files

File List: 
 File Size
Sample - Satyameva Jayate (2018) Hindi 1080p WEB-RIP x264 AC3 DD5.1 - ESUB ~ Ranvijay.mkv21 MB
Satyameva Jayate (2018) Hindi 1080p WEB-RIP x264 AC3 DD5.1 - ESUB ~ Ranvijay.mkv4.34 GB
SpecialRDP - Premium & Affordable Web Hosting Solution.url48.00 B



Comments

There are currently no comments. Be the first one to write something !