the morning show ford v ferrari 2019 WATCHMEN See s01e05 titans see seal team harriet 2019 terminator dark fate 2019 Supernatural S15E05 blue bloods s10e08 xxx Charmed it chapter two 2019 the mandalorian s01e02 zombieland double tap 2019 gemini man 2019 f1 Greys anatomy Wwe once upon a time in hollywood black and blue 2019 angel has fallen the blacklist ddr etrg legacies hustlers 2019 doctor sleep 2019 rick and morty midway 2019 Van Helsing the mandalorian blacklist ettv the mandalorian s01e01 once upon a time in hollywood 2019 formula 1 silicon valley Hindi the man in the high castle the lion king 2019 ethd maleficent mistress of evil 2019 frozen ii 2019 evo gold rush fast furious presents hobbs shaw 2019 joker 2019 supernatural south park last christmas 2019 for all mankind the blacklist s07e07 titans s02e11 charlies angels 2019 etmovies The Flash 0 good boys 2019 limetown angel has fallen 2019 joker rambo last blood 2019 mandalorian s01e02 mandalorian His Dark Materials yts gemini man the walking dead the irishman 2019 
Warning! Use a V.P.N When Downloading Torrents!
Your IP Address is 3.93.74.227. Location is United States
Your Internet Provider is tracking your torrent activity! Hide your IP ADDRESS with a V.P.N!
We strongly recommend using ExpressV.P.N to anonymize your torrenting. 30 Day Money Back Guarantee!
Try it Now!
ETTV Recommended TV Shows
Magnum.P.I.2018.S02E08.HDTV.x264-SVA[ettv] torrent
Blue.Bloods.S10E08.HDTV.x264-SVA[ettv] torrent
Shameless.US.S10E02.WEB.h264-TBS[ettv] torrent
Ray.Donovan.S07E01.WEB.h264-TBS[ettv] torrent

ETTV Recommended SD
Gemini Man.2019.HC.HDRip.XviD.AC3-EVO[EtMovies] torrent
Klaus.2019.HDRip.XviD.AC3-EVO torrent
Crown.Vic.2019.HDRip.XviD.AC3-EVO torrent
Line.Of.Duty.2019.HDRip.XviD.AC3-EVO torrent

ETTV Recommended HD
The.Current.War.2017.Bluray.1080p.DTS-HDMA.5.1.HEVC-DDR[EtHD] torrent
Isabelle.2019.1080p.Bluray.X264-EVO[EtHD] torrent
Wild.Rose.2018.MULTi.En.Fr.1080p.Bluray.DTS-HDMA.5.1.HEVC-DDR[EtHD] torrent
Brittany.Runs.A.Marathon.2019.1080p.WEB-DL.DD+5.1.H264-SDRR[EtHD] torrent

ETTV Recommended UHD
T2 Trainspotting.2017.MULTi.UHD.Blu-ray.2160p.HDR.Atmos.7.1.HEVC-DDR torrent
The Accountant.2016.MULTi.UHD.Blu-ray.2160p.HDR.DTS-HDMA.7.1.HEVC-DDR torrent
The Boss Baby 2017.MULTi.UHD.Blu-ray.2160p.HDR.Atmos.7.1.HEVC-DDR torrent
Three.Billboards.Outside.Ebbing.Missouri.2017.MULTi.UHD.Blu-ray.2160p.HDR.DTS-HDMA.5.1.HEVC-DDR torrent

ETTV Recommended Cam
Charlies Angels 2019 HDCAM x264 AC3-ETRG torrent
Motherless Brooklyn 2019 NEW HDCAM x264-ETRG torrent
Ford v Ferrari 2019 720p NEW HDCAM V2-GETB8 torrent
Hustlers 2019 NEW 720p HD-TS-GET torrent

ETTV Recommended Foreign
I Know You 2019 WebRip Hindi 720p x264 AAC ESub - mkvCinemas [Telly] torrent
Prassthanam.2019.1080p.AMZN.WEB-DL.DD+5.1.x264-Telly[EtHD] torrent
House.Arrest.2019.1080p.NF.WEB-DL.HIN-Multi.ATMOS.5.1-DD+5.1.x264-Telly[EtHD] torrent
Dosti Ke Side Effects2019.Hindi.1080p.WEB-DL.x264.AAC -DDR[EtHD] torrent


Download Torrent "Action Point (2018) (1080p BluRay 10bit x265 HEVC DTS-HD MA 7.1 Qman) [UTR-..."

IMDB Details
Description:

N/A

Genre:

N/A

Download Torrent (Magnet)
Download Torrent (File)
Seeds: 292
Leechers: 233
Completed: 1,152 
Last Checked: 31-10-2018 18:01:50


Loading...
Details
Title:Action Point (2018) (1080p BluRay 10bit x265 HEVC DTS-HD MA 7.1 Qman) [UTR-...
Description:


Encode




Source




Media Information
General
Format : Matroska
Format version : Version 4 / Version 2
File size : 8.14 GiB
Duration : 1 h 24 min
Overall bit rate : 13.8 Mb/s
Encoded date : UTC 2018-10-30 17:08:04
Writing application : mkvmerge v28.0.0 ('Voice In My Head') 64-bit
Writing library : libebml v1.3.6 + libmatroska v1.4.9

Video
ID : 1
Format : HEVC
Format/Info : High Efficiency Video Coding
Format profile : Main [email protected]@Main
Codec ID : V_MPEGH/ISO/HEVC
Duration : 1 h 24 min
Bit rate : 9 143 kb/s
Width : 1 920 pixels
Height : 1 080 pixels
Display aspect ratio : 16:9
Frame rate mode : Constant
Frame rate : 23.976 (24000/1001) FPS
Color space : YUV
Chroma subsampling : 4:2:0
Bit depth : 10 bits
Bits/(Pixel*Frame) : 0.184
Stream size : 5.40 GiB (66%)
Writing library : x265 2.8+74-fd517ae68f93:[Windows][MSVC 1915][64 bit] 10bit
Encoding settings : cpuid=1111039 / frame-threads=4 / numa-pools=16 / wpp / no-pmode / no-pme / no-psnr / no-ssim / log-level=2 / input-csp=1 / input-res=1920x1080 / interlace=0 / total-frames=121748 / level-idc=0 / high-tier=1 / uhd-bd=0 / ref=4 / no-allow-non-conformance / no-repeat-headers / annexb / no-aud / no-hrd / info / hash=0 / no-temporal-layers / open-gop / min-keyint=23 / keyint=250 / gop-lookahead=0 / bframes=8 / b-adapt=2 / b-pyramid / bframe-bias=0 / rc-lookahead=60 / lookahead-slices=4 / scenecut=40 / radl=0 / no-intra-refresh / ctu=64 / min-cu-size=8 / rect / no-amp / max-tu-size=32 / tu-inter-depth=1 / tu-intra-depth=1 / limit-tu=0 / rdoq-level=2 / dynamic-rd=0.00 / no-ssim-rd / signhide / no-tskip / nr-intra=0 / nr-inter=0 / no-constrained-intra / no-strong-intra-smoothing / max-merge=3 / limit-refs=3 / limit-modes / me=3 / subme=5 / merange=57 / temporal-mvp / weightp / no-weightb / no-analyze-src-pics / deblock=-2:-2 / no-sao / no-sao-non-deblock / rd=4 / no-early-skip / no-rskip / no-fast-intra / no-tskip-fast / no-cu-lossless / b-intra / no-splitrd-skip / rdpenalty=0 / psy-rd=1.00 / psy-rdoq=5.00 / no-rd-refine / no-lossless / cbqpoffs=0 / crqpoffs=0 / rc=crf / crf=18.0 / qcomp=0.60 / qpstep=4 / stats-write=0 / stats-read=0 / ipratio=1.40 / pbratio=1.30 / aq-mode=2 / aq-strength=1.00 / cutree / zone-count=0 / no-strict-cbr / qg-size=32 / no-rc-grain / qpmax=69 / qpmin=0 / no-const-vbv / sar=0 / overscan=0 / videoformat=5 / range=0 / colorprim=2 / transfer=2 / colormatrix=2 / chromaloc=0 / display-window=0 / max-cll=0,0 / min-luma=0 / max-luma=1023 / log2-max-poc-lsb=8 / vui-timing-info / vui-hrd-info / slices=1 / no-opt-qp-pps / no-opt-ref-list-length-pps / no-multi-pass-opt-rps / scenecut-bias=0.05 / no-opt-cu-delta-qp / no-aq-motion / no-hdr / no-hdr-opt / no-dhdr10-opt / no-idr-recovery-sei / analysis-reuse-level=5 / scale-factor=0 / refine-intra=0 / refine-inter=0 / refine-mv=0 / no-limit-sao / ctu-info=0 / no-lowpass-dct / refine-mv-type=0 / copy-pic=1 / max-ausize-factor=1.0 / no-dynamic-refine / no-single-sei
Language : English
Default : Yes
Forced : No

Audio
ID : 2
Format : DTS
Format/Info : Digital Theater Systems
Format profile : MA / Core
Mode : 16
Format settings, Endianness : Big
Codec ID : A_DTS
Duration : 1 h 24 min
Bit rate mode : Variable / Constant
Bit rate : 4 599 kb/s / 1 509 kb/s
Channel(s) : 8 channels / 6 channels
Channel positions : Front: L C R, Side: L R, Back: L R, LFE / Front: L C R, Side: L R, LFE
Sampling rate : 48.0 kHz
Frame rate : 93.750 FPS (512 spf)
Bit depth : 24 bits
Compression mode : Lossless / Lossy
Stream size : 2.72 GiB (33%)
Language : English
Default : Yes
Forced : No

Subtitle
ID : 3
Format : PGS
Muxing mode : zlib
Codec ID : S_HDMV/PGS
Codec ID/Info : Picture based subtitle format used on BDs/HD-DVDs
Duration : 1 h 24 min
Bit rate : 47.1 kb/s
Count of elements : 2546
Stream size : 28.3 MiB (0%)
Language : English
Default : Yes
Forced : No

Menu
00:00:00.000 : en:Chapter 01
00:13:22.218 : en:Chapter 02
00:20:20.219 : en:Chapter 03
00:27:39.866 : en:Chapter 04
00:36:38.446 : en:Chapter 05
00:44:15.527 : en:Chapter 06
00:51:59.407 : en:Chapter 07
00:57:39.539 : en:Chapter 08
01:05:17.038 : en:Chapter 09
01:14:09.236 : en:Chapter 10

Source Information
]Release: REMUX 24.9GB FGT

Category:Movies > HEVC/x265
Lang:English  English
Total Size:8.14 GB
Info Hash:96375a9edfa9942839a28f606c9b0c5d69429841
Added By:UTRHD
Date Added:31-10-2018 18:01:44

Files

File List: 
 File Size
Action.Point.(2018).1080p.BluRay.10-bit.x265.DTS.7.1 Qman[UTR].mkv8.14 GB



Loading...
Comments

There are currently no comments. Be the first one to write something !