game of thrones s08e05 pet sematary 2019 game of thrones s08e03 little 2019 the fix s01e10 avengers endgame 2019 pokemon detective pikachu 2019 2.0 (2018) what men want 2019 chernobyl s01e03 hellboy 2019 tushy 18.12 1080p.mp4-ktr long shot 2019 evo avengers endgame game of thrones s08e06 brightburn 2019 aladdin 2019 fighting with my family 2019 spider man into the spider verse 2018 the intruder 2019 the code s01e07 john wick 3 captain marvel a madea family funeral 2019 ddr supergirl s04e22 Ettv ethd shazam game of thrones s08e01 game of thrones s08e04 chernobyl ncis los angeles s10e24 arrow español john wick chapter 3 – parabellum 2019 WWE dcs legends of tomorrow s04e16 Supergirl cold pursuit 2019 glass 2019 the enemy within s01e13 The Enemy Within The Code good girls s02e12 us 2019 john wick john wick 2014 Legends Of Tomorrow legends of tomorrow s04e16 chernobyl s01e01 hindi the curse of la llorona 2019 big bang theory killing eve etmovies the hustle 2019 john wick chapter 2 2017 the 100 s06e04 The 100 The Big Bang Theory s12e23 The Fix tushyraw 1080p.mp4-ktr aquaman 2018 etrg shazam 2019 billions game of thrones captain marvel 2019 men in black international 2019 killing eve s02e07 yts 
Warning! Use a VPN When Downloading Torrents!
Your IP Address is 54.226.4.91. Location is United States
Your Internet Provider is tracking your torrent activity! Hide your IP ADDRESS with a VPN!
We strongly recommend using ExpressVPN to anonymize your torrenting. 30 Day Money Back Guarantee!
Try it Now!
ETTV Recommended TV Shows
NCIS.S16E24.HDTV.x264-SVA[ettv] torrent
Deadliest.Catch.S15E07.WEB.x264-TBS[ettv] torrent
The.Last.O.G.S02E08.WEBRip.x264-TBS[ettv] torrent
Blood.and.Treasure.S01E01-E02.HDTV.x264-SVA[ettv] torrent
The.100.S06E04.WEB.h264-TBS[ettv] torrent
Fosse.Verdon.S01E07.WEBRip.x264-TBS[ettv] torrent

ETTV Recommended SD
Roads.Trees.And.Honey.Bees.2019.HDRip.XviD.AC3-EVO torrent
Drunk.Parents.2019.BRRip.XviD.AC3-EVO torrent
Trading.Point.2019.BRRip.XviD.AC3-EVO torrent
Us.2019.HC.HDRip.XViD-ETRG torrent

ETTV Recommended HD
Trading.Paint.2019.1080p.BluRay.x264-CiNEFiLE[EtHD] torrent
John.Wick.2014.1080p.BluRay.MHD.X264.DD.5.1-DDR torrent
Runaway Bride 1999.1080p.BluRay.MHD.X264.DD.5.1-DDR torrent
The.Book.of.Eli.2010.1080p.BluRay.MHD.X264.DD.5.1-DDR torrent

ETTV Recommended UHD
Crank 2006.UHD.BluRay.2160p.HDR.HEVC.Atmos.7.1-DDR torrent
Aquaman 2018 1080p BDrip  x265 7.1 TrueHD Atmos D0ct0rLew[SEV] torrent
Field of Dreams 1989.Multi.UHD.2160p.Blu-ray.HDR.HEVC.DTS-HDMA.5.1-DDR torrent
Godzilla 1998.MULTi.UHD.2160p.HDR.HEVC.Atmos.7.1-DDR torrent

ETTV Recommended Cam
Brightburn 2019 HDCAM x264 AC3-ETRG torrent
The Hustle 2019 HDCAM x264 AC3 ETRG torrent
Pokemon  Detective Pikachu 2019 HDCAM x264 AC3-ETRG torrent
John Wick 3 2019 HDCAM x264 -ETRG torrent

ETTV Recommended Foreign
Yennamo Yedho (2014) 720p UNCUT HDRip x264 Eng Subs [Dual Audio] [Hindi DD 2.0 - Telugu 2.0] Exclusive By -=!Dr.STAR!=- torrent
Furie.2019.1080p.NF.Vietnamese.WEB-DL.H264-ETRG[EtHD] torrent
Mughal-E-Azam.1960.1080p.WEB-DL.AVC.AAC.ESub.DDR torrent
The Hate U Give - Il coraggio della verità (2019).1080p.H264.italian.english.Ac3-5.1.sub.ita-MIRCrew torrent


Download Torrent "Mike Tyson Mysteries Season 1 (2014 - 15) fiveofseven"

IMDB Details
Description:

N/A

Genre:

N/A

Download Torrent (Magnet)
Download Torrent (File)
Seeds: 106
Leechers: 6
Completed: 31,623 
Last Checked: 02-11-2018 21:41:57


Loading...
Details
Title:Mike Tyson Mysteries Season 1 (2014 - 15) fiveofseven
Description:




PLOT - Mike Tyson, his adopted daughter, a friendly
ghost, and an alcoholic pigeon solve mysteries.








INFO

Encoder: fiveofseven
Source: WEB-DL
Rating: TV-MA
Genre: Animation, Comedy, Mystery
Subtitles: None

General
Complete name : 01 - The End - fiveofseven.mp4
Format : MPEG-4
Codec ID : M4V
File size : 35.6 MiB
Duration : 10mn 57s
Overall bit rate mode : Variable
Overall bit rate : 454 Kbps
Encoded date : UTC 2016-11-22 19:44:43
Tagged date : UTC 2016-11-23 02:48:00
Writing application : My MP4Box GUI 0.6.0.6 <http://my-mp4box-gui.zymichost.com>

Video
ID : 1
Format : AVC
Format/Info : Advanced Video Codec
Format profile : [email protected]
Format settings, CABAC : No
Format settings, ReFrames : 7 frames
Codec ID : avc1
Codec ID/Info : Advanced Video Coding
Duration : 10mn 57s
Bit rate : 322 Kbps
Maximum bit rate : 2 125 Kbps
Width : 720 pixels
Height : 400 pixels
Display aspect ratio : 16:9
Frame rate mode : Constant
Frame rate : 23.976 fps
Color space : YUV
Chroma subsampling : 4:2:0
Bit depth : 8 bits
Scan type : Progressive
Bits/(Pixel*Frame) : 0.047
Stream size : 25.2 MiB (71%)
Title : MTM.mp4
Writing library : x264 core 146 r2538 121396c
Language : English
Encoded date : UTC 2016-11-22 19:39:15
Tagged date : UTC 2016-11-22 19:44:44

Audio
ID : 2
Format : AAC
Format/Info : Advanced Audio Codec
Format profile : LC
Codec ID : 40
Duration : 10mn 57s
Bit rate mode : Variable
Bit rate : 128 Kbps
Maximum bit rate : 132 Kbps
Channel count : 2 channels
Channel positions : Front: L R
Sampling rate : 48.0 KHz
Compression mode : Lossy
Stream size : 10.0 MiB (28%)
Title : aac.mp4
Language : English
Encoded date : UTC 2016-11-22 19:44:43
Tagged date : UTC 2016-11-22 19:44:44




Category:TV > TV Packs
Lang:English  English
Total Size:385 MB
Info Hash:6cb516ecf91f04990c35ccd92fdc2ff6d95115ae
Added By:fiveofseven
Date Added:02-11-2018 21:41:53

  

Files

File List: 
 File Size
01 - The End - fiveofseven.mp436 MB
02 - Ultimate Judgment Day - fiveofseven.mp434 MB
03 - Heavyweight Champion of The Moon - fiveofseven.mp439 MB
04 - Is Magic Real - fiveofseven.mp438 MB
05 - Mite Tyson - fiveofseven.mp439 MB
06 - A River Runs Through It Into a Heart of Darkness - fiveofseven.mp440 MB
07 - Kidnapped! - fiveofseven.mp436 MB
08 - House Haunters - fiveofseven.mp444 MB
09 - Night Moves - fiveofseven.mp439 MB
10 - Ty-Stunned - fiveofseven.mp440 MB
Torrent Downloaded From Katcr.co - Kickasstorrents.txt71.00 B



Comments

There are currently no comments. Be the first one to write something !