cold pursuit 2019 warrior captain marvel john wick hawaii five 0 s09e25 young sheldon s02e22 CHERNOBYL aladdin 2019 a madea family funeral 2019 evo little 2019 the curse of la llorona 2019 the mule 2018 glass 2019 tushyraw 1080p.mp4-ktr john wick 3 the blacklist s06e22 avengers endgame 2019 us 2019 ethd ettv brightburn 2019 0 the upside 2019 the intruder 2019 The Blacklist agents of shield hellboy 2019 the lego movie 2 the second part 2019 brooklyn nine nine game of thrones s08e04 long shot 2019 captain marvel 2019 Game of Thrones S08E05 the big bang theory s12e24 Big Bang Theory extremely wicked shockingly evil and vile 2019 how to train your dragon the hidden world 2019 spider man into the spider verse 2018 ddr etrg john wick chapter 3 – parabellum 2019 the hustle 2019 marvels agents of shield s06e02 etmovies the big bang theory s12e23 john wick 2014 hindi yts uglydolls 2019 The Flash shazam 2019 avengers infinity war 2018 Game of Thrones blacklist doom patrol s01e14 the big bang theory pet sematary 2019 what men want 2019 aquaman 2018 tushy 18.12 1080p.mp4-ktr 2.0 (2018) warrior s01e07 alita battle angel 2019 pokemon detective pikachu 2019 Avengers endgame Killing Eve fighting with my family 2019 dumbo 2019 greys anatomy s15e25 doom patrol john wick chapter 2 2017 
Warning! Use a VPN When Downloading Torrents!
Your IP Address is 18.234.88.196. Location is United States
Your Internet Provider is tracking your torrent activity! Hide your IP ADDRESS with a VPN!
We strongly recommend using ExpressVPN to anonymize your torrenting. 30 Day Money Back Guarantee!
Try it Now!
ETTV Recommended TV Shows
Warrior.S01E07.720p.WEB.h264-TBS[ettv] torrent
Dynasty.2017.S02E21.WEB.h264-TBS[ettv] torrent
Ransom.S03E12.HDTV.x264-SVA[ettv] torrent
The.Son.S02E04.WEB.h264-TBS[ettv] torrent
Marvels.Guardians.of.the.Galaxy.S03E18.WEB.x264-TBS[ettv] torrent
Deep.State.S02E01.HDTV.x264-MTB[ettv] torrent

ETTV Recommended SD
See.You.Yesterday.2019.NF.HDRip.XViD-ETRG torrent
Bardo.Blues.2017.HDRip.XviD.AC3-EVO torrent
Breakneck.2019.HDRip.XviD.AC3-EVO torrent
The.Siren.2019.HDRip.XViD-ETRG torrent

ETTV Recommended HD
Never Grow Old 2019.BluRay.1080p.HEVC.DTS-HDMA.5.1-DDR torrent
The.Brawler.2019.1080p.NF.WEB-DL.H264-ETRG[EtHD] torrent
The Siren 2019.1080p.AMZN.HDRip.DDP.2.0-DDR torrent
They Look Like People 2015.1080p.AMZN.HDRip.DDP.2.0-DDR torrent

ETTV Recommended UHD
The Bridge on The River Kwai 1957.UHD.Blu-ray.1080.HDR.Atmos.7.1-DDR torrent
Crank 2006.UHD.BluRay.2160p.HDR.HEVC.Atmos.7.1-DDR torrent
Aquaman 2018 1080p BDrip  x265 7.1 TrueHD Atmos D0ct0rLew[SEV] torrent
Field of Dreams 1989.Multi.UHD.2160p.Blu-ray.HDR.HEVC.DTS-HDMA.5.1-DDR torrent

ETTV Recommended Cam
Brightburn 2019 HDCAM x264 AC3-ETRG torrent
The Hustle 2019 HDCAM x264 AC3 ETRG torrent
Pokemon  Detective Pikachu 2019 HDCAM x264 AC3-ETRG torrent
John Wick 3 2019 HDCAM x264 -ETRG torrent

ETTV Recommended Foreign
Chitralahari 2019.AMZN.HDrip.1080p.HEVC.DDP.5.1-DDR torrent
Paris Pigalle 2018.1080p.AMZN.HDRip.DDP5.1-DDR torrent
Mon Jaane Na.2019.1080p.WEB-DL.AVC.AAC.DDR torrent
Bumblebee.(2018).[1080p].[Dual.Audio].[Org.DD].{Hindi+Eng.6Ch}.-~{DOOMSDAY}~-. torrent


Download Torrent "The Meg (2018) (1080p BluRay 10bit x265 HEVC TrueHD 7.1 Qman) [UTR-HD]"

IMDB Details
Description:

N/A

Genre:

N/A

Download Torrent (Magnet)
Download Torrent (File)
Seeds: 118
Leechers: 152
Completed: 578 
Last Checked: 13-11-2018 14:31:07


Loading...
Details
Title:The Meg (2018) (1080p BluRay 10bit x265 HEVC TrueHD 7.1 Qman) [UTR-HD]
Description:

[img="https://i.postimg.cc/hjkyHjgc/pirate-shark-banner-with-forum-site-address-www-imagesplitter-n.png" alt=""][img="https://i.postimg.cc/CLHPQS2p/pirate-shark-banner-with-forum-site-address-www-imagesplitter-n.png" alt=""]
[img="https://i.postimg.cc/13vWyMPW/pirate-shark-banner-with-forum-site-address-www-imagesplitter-n.png" alt=""][img="https://i.postimg.cc/yNWLx987/pirate-shark-banner-with-forum-site-address-www-imagesplitter-n.png" alt=""]



Media Information
General
Format : Matroska
Format version : Version 4 / Version 2
File size : 9.38 GiB
Duration : 1 h 53 min
Overall bit rate mode : Variable
Overall bit rate : 11.9 Mb/s
Encoded date : UTC 2018-11-11 03:02:25
Writing application : mkvmerge v28.0.0 ('Voice In My Head') 64-bit
Writing library : libebml v1.3.6 + libmatroska v1.4.9

Video
ID : 1
Format : HEVC
Format/Info : High Efficiency Video Coding
Format profile : Main [email protected]@Main
Codec ID : V_MPEGH/ISO/HEVC
Duration : 1 h 53 min
Bit rate : 8 724 kb/s
Width : 1 920 pixels
Height : 804 pixels
Display aspect ratio : 2.40:1
Frame rate mode : Constant
Frame rate : 23.976 (24000/1001) FPS
Color space : YUV
Chroma subsampling : 4:2:0
Bit depth : 10 bits
Bits/(Pixel*Frame) : 0.236
Stream size : 6.90 GiB (74%)
Writing library : x265 2.9+4-471726d3a046:[Windows][MSVC 1915][64 bit] 10bit
Encoding settings : cpuid=1111039 / frame-threads=2 / numa-pools=4 / wpp / no-pmode / no-pme / no-psnr / no-ssim / log-level=2 / input-csp=1 / input-res=1920x804 / interlace=0 / total-frames=162884 / level-idc=0 / high-tier=1 / uhd-bd=0 / ref=4 / no-allow-non-conformance / no-repeat-headers / annexb / no-aud / no-hrd / info / hash=0 / no-temporal-layers / open-gop / min-keyint=23 / keyint=250 / gop-lookahead=0 / bframes=8 / b-adapt=2 / b-pyramid / bframe-bias=0 / rc-lookahead=70 / lookahead-slices=4 / scenecut=40 / radl=0 / no-intra-refresh / ctu=64 / min-cu-size=8 / rect / no-amp / max-tu-size=32 / tu-inter-depth=1 / tu-intra-depth=1 / limit-tu=0 / rdoq-level=2 / dynamic-rd=0.00 / no-ssim-rd / signhide / no-tskip / nr-intra=0 / nr-inter=0 / no-constrained-intra / no-strong-intra-smoothing / max-merge=3 / limit-refs=3 / limit-modes / me=3 / subme=5 / merange=57 / temporal-mvp / weightp / no-weightb / no-analyze-src-pics / deblock=-3:-3 / no-sao / no-sao-non-deblock / rd=4 / no-early-skip / no-rskip / no-fast-intra / no-tskip-fast / no-cu-lossless / b-intra / no-splitrd-skip / rdpenalty=0 / psy-rd=1.00 / psy-rdoq=5.00 / no-rd-refine / no-lossless / cbqpoffs=0 / crqpoffs=0 / rc=crf / crf=18.0 / qcomp=0.60 / qpstep=4 / stats-write=0 / stats-read=0 / ipratio=1.40 / pbratio=1.30 / aq-mode=2 / aq-strength=1.00 / cutree / zone-count=0 / no-strict-cbr / qg-size=32 / no-rc-grain / qpmax=69 / qpmin=0 / no-const-vbv / sar=0 / overscan=0 / videoformat=5 / range=0 / colorprim=2 / transfer=2 / colormatrix=2 / chromaloc=0 / display-window=0 / max-cll=0,0 / min-luma=0 / max-luma=1023 / log2-max-poc-lsb=8 / vui-timing-info / vui-hrd-info / slices=1 / no-opt-qp-pps / no-opt-ref-list-length-pps / no-multi-pass-opt-rps / scenecut-bias=0.05 / no-opt-cu-delta-qp / no-aq-motion / no-hdr / no-hdr-opt / no-dhdr10-opt / no-idr-recovery-sei / analysis-reuse-level=5 / scale-factor=0 / refine-intra=0 / refine-inter=0 / refine-mv=0 / no-limit-sao / ctu-info=0 / no-lowpass-dct / refine-mv-type=0 / copy-pic=1 / max-ausize-factor=1.0 / no-dynamic-refine / no-single-sei
Language : English
Default : Yes
Forced : No

Audio
ID : 2
Format : Atmos / TrueHD
Codec ID : A_TRUEHD
Duration : 1 h 53 min
Bit rate mode : Variable
Bit rate : 3 051 kb/s
Maximum bit rate : 5 067 kb/s
Channel(s) : Object Based / 8 channels
Channel positions : Object Based / Front: L C R, Side: L R, Back: L R, LFE
Sampling rate : / 48.0 kHz
Frame rate : 1 200.000 FPS (40 spf)
Compression mode : Lossless
Stream size : 2.41 GiB (26%)
Language : English
Default : Yes
Forced : No

Subtitle
ID : 3
Format : PGS
Muxing mode : zlib
Codec ID : S_HDMV/PGS
Codec ID/Info : Picture based subtitle format used on BDs/HD-DVDs
Duration : 1 h 52 min
Bit rate : 33.9 kb/s
Count of elements : 2960
Stream size : 27.2 MiB (0%)
Language : English
Default : Yes
Forced : No

Menu
00:00:00.000 : en:Chapter 01
00:08:48.694 : en:Chapter 02
00:18:14.259 : en:Chapter 03
00:27:09.878 : en:Chapter 04
00:39:30.534 : en:Chapter 05
00:49:10.989 : en:Chapter 06
00:58:01.478 : en:Chapter 07
01:08:22.890 : en:Chapter 08
01:19:45.947 : en:Chapter 09
01:30:04.399 : en:Chapter 10
01:42:40.988 : en:Chapter 11

Source Information
Release: REMUX FGT


Note From UTR
We have no issue with individuals posting or re-uploading our torrents on a platform we aren't on. However, if this is something you'd like to do, please do so in a 'as-is' format. We ask that you do not create a new torrent, include all descriptions you see above including the UTR logo, tags, notes and screenshots. If you'd like to become a permanent poster on a website we don't post to, feel free to get in contact with a UniTeam member.

If possible please donate: BTC 1QA5fum5AyXvWzdVCkQzUNvw3Ef15fHRaR


Category:Movies > HEVC/x265
Lang:English  English
Total Size:9.38 GB
Info Hash:57f65fb03b96d381a37b1249c56f22800adfb183
Added By:UTRHD
Date Added:13-11-2018 14:30:58

Files

File List: 
 File Size
The.Meg.(2018).1080p.BluRay.10-bit.x265.TrueHD.7.1 Qman[UTR].(51110F64).mkv9.38 GB



Comments

There are currently no comments. Be the first one to write something !