little 2019 alita battle angel 2019 men in black international 2019 dc week shazam 2019 aew the lion king 2019 dark phoenix 2019 once upon a time in hollywood 2019 yesterday 2019 evo etrg annabelle comes home 2019 john wick John Wick 3 midsommar 2019 dumbo 2019 childs play 2019 FORMULA ettv spider man far from home 2019 i got the hook up 2 2019 chernobyl stranger things arrow español john wick chapter 3 – parabellum 2019 stuber 2019 Hellboy 2019 kabir singh ma 2019 Xxx ethd point blank 2019 aladdin 2019 harry potter 0 yts crawl 2019 ddr marvels agents of shield s06e09 the rook godzilla king of the monsters 2019 nascar star trek discovery español captain marvel 2019 the dead dont die 2019 shaft 2019 us 2019 swamp thing s01e07 formula 1 pokemon detective pikachu 2019 avengers endgame 2019 DDR aquaman 2018 rocketman 2019 yellowstone s02e03 avengers endgame brightburn 2019 f1 2.0 (2018) alita super 30 toy story 4 2019 etmovies hindi ufc the intruder 2019 swamp thing shazam escape plan the extractors 2019 the secret life of pets 2 2019 pet sematary 2019 anna 2019 
Warning! Use a VPN When Downloading Torrents!
Your IP Address is 54.198.246.164. Location is United States
Your Internet Provider is tracking your torrent activity! Hide your IP ADDRESS with a VPN!
We strongly recommend using ExpressVPN to anonymize your torrenting. 30 Day Money Back Guarantee!
Try it Now!
ETTV Recommended TV Shows
Euphoria.US.S01E05.WEB.h264-TBS[ettv] torrent
Big.Little.Lies.S02E06.WEB.h264-TBS[ettv] torrent
Instinct.US.S02E03.720p.HDTV.x264-AVS[ettv] torrent
WWE Extreme Rules 2019 PPV WEB h264-HEEL [TJET] torrent

ETTV Recommended SD
The.Intruder.2019.HDRip.AC3.x264-CMRG[EtMovies] torrent
SGT.Will.Gardner.2019.BRRip.XviD.AC3-EVO torrent
The.Cleansing.2019.HDRip.AC3.x264-CMRG[EtMovies] torrent
Hellboy.2019.BDRip.XviD.AC3-EVO[EtMovies] torrent

ETTV Recommended HD
John Wick Chapter 2 (2017)-Keanu Reeves-1080p-H264-AC 3 (DolbyDigital-5.1) & nickarad torrent
Alita.Battle.Angel.2019.Multi.1080p.Blu-ray.HEVC.DTS-HD.MA.7.1-DDR[EtHD] torrent
Poms.2019.1080p.NF.WEB-DL.DDP5.1.x264-NTG[EtHD] torrent
Hellboy.2019.1080p.Bluray.X264-EVO[EtHD] torrent

ETTV Recommended UHD
Shazam! 2019.Multi.UHD.BluRay.2160p.HDR.HEVC.Atmos.7.1[En+Hindi++]-DDR torrent
Hulk 2003.MULTi.Blu-ray.2160.HDR.HEVC.DTS-X.7.1-DDR torrent
Water World 1995.MULTi.Blu-ray.2160p.HEVC.HDR.DTS-X.7.1-DDR torrent
Alita Battle Angel 2019.MULTi.UHD.BluRay.2160p.HDR.Atmos.7.1.HEVC[EN+Hindi++]-DDR.mkv torrent

ETTV Recommended Cam
Yesterday 2019 720p HDCAM-1XBET torrent
Spider-Man Far From Home 2019 NEW 720p HD-TC NO ADS-1XBET torrent
Crawl 2019 720p HDCAM-1XBET torrent
Stuber 2019 720p HDCAM-1XBET torrent

ETTV Recommended Foreign
Sophia.Antipolis.2018.1080p.FRA.WEB-Rip.AAC2.0.HEVC-DDR[EtHD] torrent
Alita: Battle Angel - Alita: Angelo della battaglia (2019).720p.H264.ita.eng.Ac3-5.1.sub.ita.eng-MIRCrew torrent
Devi.2016.1080p.WEB-DL.AVC.AAC.DDR torrent
Kalakalappu 2.2018.1080p.WEB-DL.AVC.AAC.ESub.DDR torrent


Download Torrent "The Walking Dead S09E06 (1080p AMZN WEB-DL x265 HEVC 10bit AAC 5.1 Joy) [UT..."

IMDB Details
Description:

N/A

Genre:

N/A

Download Torrent (Magnet)
Download Torrent (File)
Seeds: 412
Leechers: 142
Completed: 10,967 
Last Checked: 15-11-2018 17:06:21


Loading...
Details
Title:The Walking Dead S09E06 (1080p AMZN WEB-DL x265 HEVC 10bit AAC 5.1 Joy) [UT...
Description:
[img="https://i.postimg.cc/hjkyHjgc/pirate-shark-banner-with-forum-site-address-www-imagesplitter-n.png" alt=""][img="https://i.postimg.cc/CLHPQS2p/pirate-shark-banner-with-forum-site-address-www-imagesplitter-n.png" alt=""]
[img="https://i.postimg.cc/13vWyMPW/pirate-shark-banner-with-forum-site-address-www-imagesplitter-n.png" alt=""][img="https://i.postimg.cc/yNWLx987/pirate-shark-banner-with-forum-site-address-www-imagesplitter-n.png" alt=""]



Media Information
General
Format : Matroska
Format version : Version 4 / Version 2
File size : 553 MiB
Duration : 54 min 29 s
Overall bit rate : 1 420 kb/s
Movie name : The Walking Dead S09E06 Who Are You Now (1080p x265 10bit Joy)
Encoded date : UTC 2018-11-13 22:05:02
Writing application : mkvmerge v25.0.0 ('Prog Noir') 64-bit
Writing library : libebml v1.3.6 + libmatroska v1.4.9
Writing frontend : StaxRip v1.8.2.0

Video
ID : 1
Format : HEVC
Format/Info : High Efficiency Video Coding
Format profile : Main [email protected]@Main
Codec ID : V_MPEGH/ISO/HEVC
Duration : 54 min 29 s
Bit rate : 1 195 kb/s
Width : 1 920 pixels
Height : 1 080 pixels
Display aspect ratio : 16:9
Frame rate mode : Constant
Frame rate : 23.976 (24000/1001) FPS
Original frame rate : 24.000 FPS
Color space : YUV
Chroma subsampling : 4:2:0
Bit depth : 10 bits
Bits/(Pixel*Frame) : 0.024
Stream size : 466 MiB (84%)
Writing library : x265 2.8+19-bcdc610cf5f0:[Windows][MSVC 1914][64 bit] 10bit
Encoding settings : cpuid=1111039 / frame-threads=3 / numa-pools=8 / wpp / no-pmode / no-pme / no-psnr / ssim / log-level=2 / input-csp=1 / input-res=1920x1080 / interlace=0 / total-frames=78397 / level-idc=0 / high-tier=1 / uhd-bd=0 / ref=4 / no-allow-non-conformance / no-repeat-headers / annexb / no-aud / no-hrd / info / hash=0 / no-temporal-layers / open-gop / min-keyint=24 / keyint=250 / gop-lookahead=0 / bframes=4 / b-adapt=2 / b-pyramid / bframe-bias=0 / rc-lookahead=80 / lookahead-slices=4 / scenecut=40 / radl=0 / no-intra-refresh / ctu=64 / min-cu-size=8 / no-rect / no-amp / max-tu-size=32 / tu-inter-depth=1 / tu-intra-depth=1 / limit-tu=0 / rdoq-level=2 / dynamic-rd=0.00 / ssim-rd / signhide / no-tskip / nr-intra=0 / nr-inter=0 / no-constrained-intra / strong-intra-smoothing / max-merge=3 / limit-refs=3 / limit-modes / me=3 / subme=3 / merange=57 / temporal-mvp / weightp / no-weightb / no-analyze-src-pics / deblock=2:2 / sao / no-sao-non-deblock / rd=4 / no-early-skip / rskip / no-fast-intra / no-tskip-fast / no-cu-lossless / no-b-intra / no-splitrd-skip / rdpenalty=0 / psy-rd=0.00 / psy-rdoq=1.00 / no-rd-refine / no-lossless / cbqpoffs=0 / crqpoffs=0 / rc=abr / bitrate=1200 / qcomp=0.60 / qpstep=4 / stats-write=0 / stats-read=2 / cplxblur=20.0 / qblur=0.5 / vbv-maxrate=2400 / vbv-bufsize=7200 / vbv-init=0.9 / ipratio=1.40 / pbratio=1.30 / aq-mode=2 / aq-strength=0.80 / cutree / zone-count=0 / no-strict-cbr / qg-size=32 / no-rc-grain / qpmax=69 / qpmin=0 / no-const-vbv / sar=0 / overscan=0 / videoformat=5 / range=0 / colorprim=2 / transfer=2 / colormatrix=2 / chromaloc=0 / display-window=0 / max-cll=0,0 / min-luma=0 / max-luma=1023 / log2-max-poc-lsb=8 / vui-timing-info / vui-hrd-info / slices=1 / no-opt-qp-pps / no-opt-ref-list-length-pps / multi-pass-opt-rps / scenecut-bias=0.05 / no-opt-cu-delta-qp / no-aq-motion / no-hdr / no-hdr-opt / no-dhdr10-opt / no-idr-recovery-sei / analysis-reuse-level=10 / scale-factor=0 / refine-intra=0 / refine-inter=0 / refine-mv=0 / limit-sao / ctu-info=0 / no-lowpass-dct / refine-mv-type=0 / copy-pic=1 / max-ausize-factor=1.0 / no-dynamic-refine / no-single-sei
Default : Yes
Forced : No

Audio
ID : 2
Format : AAC
Format/Info : Advanced Audio Codec
Format profile : HE-AAC / LC
Codec ID : A_AAC
Duration : 54 min 29 s
Bit rate : 223 kb/s
Channel(s) : 6 channels
Channel positions : Front: L C R, Side: L R, LFE
Sampling rate : 48.0 kHz / 24.0 kHz
Frame rate : 23.438 FPS (1024 spf)
Compression mode : Lossy
Delay relative to video : 31 ms
Stream size : 86.8 MiB (16%)
Language : English
Default : No
Forced : No

Subtitle #1
ID : 3
Format : UTF-8
Codec ID : S_TEXT/UTF8
Codec ID/Info : UTF-8 Plain Text
Duration : 54 min 20 s
Bit rate : 47 b/s
Count of elements : 863
Stream size : 18.8 KiB (0%)
Language : English
Default : No
Forced : No

Subtitle #2
ID : 4
Format : UTF-8
Codec ID : S_TEXT/UTF8
Codec ID/Info : UTF-8 Plain Text
Duration : 54 min 20 s
Bit rate : 53 b/s
Count of elements : 1014
Stream size : 21.3 KiB (0%)
Language : English
Default : No

Source Information
Release: The.Walking.Dead.S09E06.Who.Are.You.Now.1080p.AMZN.WEB-DL.DD+5.1.H.264-CasStudio.mkv (5.42 GBs)



Note From UTR
We have no issue with individuals posting or re-uploading our torrents on a platform we aren't on. However, if this is something you'd like to do, please do so in a 'as-is' format. We ask that you do not create a new torrent, include all descriptions you see above including the UTR logo, tags, notes and screenshots. If you'd like to become a permanent poster on a website we don't post to, feel free to get in contact with a UniTeam member.

If possible please donate: BTC 1QA5fum5AyXvWzdVCkQzUNvw3Ef15fHRaR


Category:TV > HEVC/x265
Lang:English  English
Total Size:553 MB
Info Hash:8e7c8d98b46c7135b89275974f3f9c5ce84e02c5
Added By:UTR
Date Added:15-11-2018 17:06:13

Files

File List: 
 File Size
The Walking Dead S09E06 Who Are You Now (1080p x265 10bit FS69 Joy).mkv553 MB



Loading...
Comments

There are currently no comments. Be the first one to write something !