little 2019 alita battle angel 2019 men in black international 2019 dc week shazam 2019 aew the lion king 2019 dark phoenix 2019 once upon a time in hollywood 2019 yesterday 2019 evo etrg annabelle comes home 2019 john wick John Wick 3 midsommar 2019 dumbo 2019 childs play 2019 FORMULA ettv spider man far from home 2019 i got the hook up 2 2019 chernobyl stranger things arrow español john wick chapter 3 – parabellum 2019 stuber 2019 Hellboy 2019 kabir singh ma 2019 Xxx ethd point blank 2019 aladdin 2019 harry potter 0 yts crawl 2019 ddr marvels agents of shield s06e09 the rook godzilla king of the monsters 2019 nascar star trek discovery español captain marvel 2019 the dead dont die 2019 shaft 2019 us 2019 swamp thing s01e07 formula 1 pokemon detective pikachu 2019 avengers endgame 2019 DDR aquaman 2018 rocketman 2019 yellowstone s02e03 avengers endgame brightburn 2019 f1 2.0 (2018) alita super 30 toy story 4 2019 etmovies hindi ufc the intruder 2019 swamp thing shazam escape plan the extractors 2019 the secret life of pets 2 2019 pet sematary 2019 anna 2019 
Warning! Use a VPN When Downloading Torrents!
Your IP Address is 54.198.246.164. Location is United States
Your Internet Provider is tracking your torrent activity! Hide your IP ADDRESS with a VPN!
We strongly recommend using ExpressVPN to anonymize your torrenting. 30 Day Money Back Guarantee!
Try it Now!
ETTV Recommended TV Shows
Euphoria.US.S01E05.WEB.h264-TBS[ettv] torrent
Big.Little.Lies.S02E06.WEB.h264-TBS[ettv] torrent
Instinct.US.S02E03.720p.HDTV.x264-AVS[ettv] torrent
WWE Extreme Rules 2019 PPV WEB h264-HEEL [TJET] torrent

ETTV Recommended SD
The.Intruder.2019.HDRip.AC3.x264-CMRG[EtMovies] torrent
SGT.Will.Gardner.2019.BRRip.XviD.AC3-EVO torrent
The.Cleansing.2019.HDRip.AC3.x264-CMRG[EtMovies] torrent
Hellboy.2019.BDRip.XviD.AC3-EVO[EtMovies] torrent

ETTV Recommended HD
John Wick Chapter 2 (2017)-Keanu Reeves-1080p-H264-AC 3 (DolbyDigital-5.1) & nickarad torrent
Alita.Battle.Angel.2019.Multi.1080p.Blu-ray.HEVC.DTS-HD.MA.7.1-DDR[EtHD] torrent
Poms.2019.1080p.NF.WEB-DL.DDP5.1.x264-NTG[EtHD] torrent
Hellboy.2019.1080p.Bluray.X264-EVO[EtHD] torrent

ETTV Recommended UHD
Shazam! 2019.Multi.UHD.BluRay.2160p.HDR.HEVC.Atmos.7.1[En+Hindi++]-DDR torrent
Hulk 2003.MULTi.Blu-ray.2160.HDR.HEVC.DTS-X.7.1-DDR torrent
Water World 1995.MULTi.Blu-ray.2160p.HEVC.HDR.DTS-X.7.1-DDR torrent
Alita Battle Angel 2019.MULTi.UHD.BluRay.2160p.HDR.Atmos.7.1.HEVC[EN+Hindi++]-DDR.mkv torrent

ETTV Recommended Cam
Yesterday 2019 720p HDCAM-1XBET torrent
Spider-Man Far From Home 2019 NEW 720p HD-TC NO ADS-1XBET torrent
Crawl 2019 720p HDCAM-1XBET torrent
Stuber 2019 720p HDCAM-1XBET torrent

ETTV Recommended Foreign
Sophia.Antipolis.2018.1080p.FRA.WEB-Rip.AAC2.0.HEVC-DDR[EtHD] torrent
Alita: Battle Angel - Alita: Angelo della battaglia (2019).720p.H264.ita.eng.Ac3-5.1.sub.ita.eng-MIRCrew torrent
Devi.2016.1080p.WEB-DL.AVC.AAC.DDR torrent
Kalakalappu 2.2018.1080p.WEB-DL.AVC.AAC.ESub.DDR torrent


Download Torrent "The Walking Dead - 9x08 Evolution - Sussurri.720p.H264.ita.eng.sub.ita.eng-..."

IMDB Details
Description:

N/A

Genre:

N/A

Download Torrent (Magnet)
Download Torrent (File)
Seeds: 492
Leechers: 188
Completed: 8,994 
Last Checked: 27-11-2018 13:56:29


Loading...
Details
Title:The Walking Dead - 9x08 Evolution - Sussurri.720p.H264.ita.eng.sub.ita.eng-...
Description:
The Walking Dead - 9x08 Evolution - Sussurri.720p.H264.ita.eng.sub.ita.eng-MIRCrew




La nona stagione della serie televisiva The Walking Dead, composta da sedici episodi, trasmessa in prima visione assoluta negli Stati Uniti d'America dall'emittente AMC dal 7 ottobre 2018

trascorso un anno e mezzo dalla fine della guerra contro i salvatori.

In una Alexandria ricostruita e prospera, Rick, ora con i capelli pi corti e grigi, guarda felicemente Michonne dipingere con Judith. I tre vanno fuori dalle mura per vedere uno stormo di uccelli nel campo.

Episodi:


1 Un nuovo inizio
2 The Bridge - il ponte
3 Warning Signs
4 The Obliged
5 What Comes After
6 Who Are You Now
7 Stradivarius 18 novembre 2018 19 novembre 2018
8 Evolution 25 novembre 2018 26 novembre 2018







General
Unique ID : 41293509419272562463372013015687529667 (0x1F10D733861A18A81435EA1A64FC84C3)
Complete name : The Walking Dead - 9x08 Evolution - Sussurri.720p.H264.ita.eng.sub.ita.eng-MIRCrew\The Walking Dead - 9x08 Evolution - Sussurri.720p.H264.ita.eng.sub.ita.eng-MIRCrew.mkv
Format : Matroska
Format version : Version 2
File size : 686 MiB
Duration : 42mn 25s
Overall bit rate : 2 261 Kbps
Movie name : MIRCrew
Encoded date : UTC 2018-11-27 11:20:09
Writing application : Lavf54.63.100
Writing library : Lavf54.63.100
COMMENT : mircrew-releases

Video
ID : 1
Format : AVC
Format/Info : Advanced Video Codec
Format profile : [email protected]
Format settings, CABAC : Yes
Format settings, ReFrames : 2 frames
Codec ID : V_MPEG4/ISO/AVC
Duration : 42mn 25s
Bit rate : 1 900 Kbps
Width : 1 280 pixels
Height : 720 pixels
Display aspect ratio : 16:9
Frame rate mode : Variable
Frame rate : 25.000 fps
Color space : YUV
Chroma subsampling : 4:2:0
Bit depth : 8 bits
Scan type : Progressive
Bits/(Pixel*Frame) : 0.082
Stream size : 556 MiB (81%)
Writing library : x264 core 130 r2273
Encoding settings : cabac=1 / ref=2 / deblock=1:0:0 / analyse=0x1:0x131 / me=hex / subme=7 / psy=1 / psy_rd=1.00:0.00 / mixed_ref=0 / me_range=16 / chroma_me=1 / trellis=1 / 8x8dct=0 / cqm=0 / deadzone=21,11 / fast_pskip=1 / chroma_qp_offset=-2 / threads=6 / lookahead_threads=1 / sliced_threads=0 / nr=0 / decimate=1 / interlaced=0 / bluray_compat=0 / constrained_intra=0 / bframes=3 / b_pyramid=0 / b_adapt=1 / b_bias=0 / direct=3 / weightb=1 / open_gop=0 / weightp=2 / keyint=250 / keyint_min=25 / scenecut=40 / intra_refresh=0 / rc_lookahead=40 / rc=abr / mbtree=1 / bitrate=1900 / ratetol=1.0 / qcomp=0.60 / qpmin=10 / qpmax=69 / qpstep=4 / vbv_maxrate=24000 / vbv_bufsize=24000 / nal_hrd=none / ip_ratio=1.40 / aq=1:1.00
Language : Italian
Default : Yes
Forced : No
DURATION : 00:42:25.360000000
NUMBER_OF_FRAMES : 63634
NUMBER_OF_BYTES : 1740020369
_STATISTICS_WRITING_APP : mkvmerge v7.1.0 ('Good Love') 32bit built on Jul 27 2014 12:59:18
_STATISTICS_WRITING_DATE_UTC : 2018-11-26 23:22:23
_STATISTICS_TAGS : BPS DURATION NUMBER_OF_FRAMES NUMBER_OF_BYTES

Audio #1
ID : 2
Format : AC-3
Format/Info : Audio Coding 3
Mode extension : CM (complete main)
Codec ID : A_AC3
Duration : 42mn 25s
Bit rate mode : Constant
Bit rate : 192 Kbps
Channel(s) : 2 channels
Channel positions : Front: L R
Sampling rate : 48.0 KHz
Bit depth : 16 bits
Compression mode : Lossy
Delay relative to video : 1mn 5s
Stream size : 58.3 MiB (8%)
Title : ITA
Language : Italian
Default : Yes
Forced : Yes
DURATION : 00:42:25.440000000
NUMBER_OF_FRAMES : 79545
NUMBER_OF_BYTES : 61090560
_STATISTICS_WRITING_APP : mkvmerge v7.1.0 ('Good Love') 32bit built on Jul 27 2014 12:59:18
_STATISTICS_WRITING_DATE_UTC : 2018-11-26 23:22:23
_STATISTICS_TAGS : BPS DURATION NUMBER_OF_FRAMES NUMBER_OF_BYTES

Audio #2
ID : 3
Format : AC-3
Format/Info : Audio Coding 3
Mode extension : CM (complete main)
Codec ID : A_AC3
Duration : 42mn 25s
Bit rate mode : Constant
Bit rate : 192 Kbps
Channel(s) : 2 channels
Channel positions : Front: L R
Sampling rate : 48.0 KHz
Bit depth : 16 bits
Compression mode : Lossy
Delay relative to video : 1mn 5s
Stream size : 58.3 MiB (8%)
Title : ENG
Language : English
Default : No
Forced : No
DURATION : 00:42:25.376000000
NUMBER_OF_FRAMES : 79543
NUMBER_OF_BYTES : 122178048
_STATISTICS_WRITING_APP : mkvmerge v7.1.0 ('Good Love') 32bit built on Jul 27 2014 12:59:18
_STATISTICS_WRITING_DATE_UTC : 2018-11-26 23:22:23
_STATISTICS_TAGS : BPS DURATION NUMBER_OF_FRAMES NUMBER_OF_BYTES









Category:TV > HD/X264/H264
Lang:English  English
Total Size:686 MB
Info Hash:ab858c1f7eb4d3470c9461307bb9f06440a6babc
Added By:robbyrs
Date Added:27-11-2018 13:56:25

Files

File List: 
 File Size
BY MIRCrew.txt65.00 B
The Walking Dead - 9x08 Evolution - Sussurri.720p.H264.ita.eng.sub.ita.eng-MIRCrew.eng.srt64.57 kB
The Walking Dead - 9x08 Evolution - Sussurri.720p.H264.ita.eng.sub.ita.eng-MIRCrew.ita.srt37.80 kB
The Walking Dead - 9x08 Evolution - Sussurri.720p.H264.ita.eng.sub.ita.eng-MIRCrew.mkv686 MB
The Walking Dead - 9x08 Evolution - Sussurri.720p.H264.ita.eng.sub.ita.eng-MIRCrew.srt673.00 B



Loading...
Comments

There are currently no comments. Be the first one to write something !