game of thrones s08e05 pet sematary 2019 game of thrones s08e03 little 2019 the fix s01e10 avengers endgame 2019 pokemon detective pikachu 2019 2.0 (2018) what men want 2019 chernobyl s01e03 hellboy 2019 tushy 18.12 1080p.mp4-ktr long shot 2019 evo avengers endgame game of thrones s08e06 brightburn 2019 aladdin 2019 fighting with my family 2019 spider man into the spider verse 2018 the intruder 2019 the code s01e07 john wick 3 captain marvel a madea family funeral 2019 ddr supergirl s04e22 Ettv ethd shazam game of thrones s08e01 game of thrones s08e04 chernobyl ncis los angeles s10e24 arrow español john wick chapter 3 – parabellum 2019 WWE dcs legends of tomorrow s04e16 Supergirl cold pursuit 2019 glass 2019 the enemy within s01e13 The Enemy Within The Code good girls s02e12 us 2019 john wick john wick 2014 Legends Of Tomorrow legends of tomorrow s04e16 chernobyl s01e01 hindi the curse of la llorona 2019 big bang theory killing eve etmovies the hustle 2019 john wick chapter 2 2017 the 100 s06e04 The 100 The Big Bang Theory s12e23 The Fix tushyraw 1080p.mp4-ktr aquaman 2018 etrg shazam 2019 billions game of thrones captain marvel 2019 men in black international 2019 killing eve s02e07 yts 
Warning! Use a VPN When Downloading Torrents!
Your IP Address is 34.229.151.87. Location is United States
Your Internet Provider is tracking your torrent activity! Hide your IP ADDRESS with a VPN!
We strongly recommend using ExpressVPN to anonymize your torrenting. 30 Day Money Back Guarantee!
Try it Now!
ETTV Recommended TV Shows
Mrs.Wilson.S01.1080i.BluRay.MHD.X264.DD.5.1-DDR torrent
The.Fix.2019.S01E10.HDTV.x264-KILLERS[ettv] torrent
DCs.Legends.of.Tomorrow.S04E16.HDTV.x264-KILLERS[ettv] torrent
The.Enemy.Within.S01E13.HDTV.x264-LucidTV[ettv] torrent
The.Code.2019.S01E07.WEB.x264-TBS[ettv] torrent
Chernobyl.S01E03.1080p.WEB.x265.10bit.6CH.ReEnc-LUMI.mp4 torrent

ETTV Recommended SD
A.Madea.Family.Funeral.2019.HDRip.XViD-ETRG torrent
Gloria.Bell.2019.HDRip.XviD.AC3-EVO torrent
Run.the.Race.2019.HDRip.XViD-ETRG torrent
Shazam.2019.HC.HDRip.XViD.AC3-ETRG torrent

ETTV Recommended HD
Shazam.2019.1080p.V3.HC.HDRip.X264-EVO[EtHD] torrent
Miami.Vice.2006.720p.NF.WEB-DL.H264-ETRG[EtHD] torrent
Indecent.Proposal.1993.720p.NF.WEB-DL.H264-ETRG[EtHD] torrent
The.Blues.Brothers.1980.720p.NF.WEB-DL.H264-ETRG[EtHD] torrent

ETTV Recommended UHD
Crank 2006.UHD.BluRay.2160p.HDR.HEVC.Atmos.7.1-DDR torrent
Aquaman 2018 1080p BDrip  x265 7.1 TrueHD Atmos D0ct0rLew[SEV] torrent
Field of Dreams 1989.Multi.UHD.2160p.Blu-ray.HDR.HEVC.DTS-HDMA.5.1-DDR torrent
Godzilla 1998.MULTi.UHD.2160p.HDR.HEVC.Atmos.7.1-DDR torrent

ETTV Recommended Cam
Brightburn 2019 HDCAM x264 AC3-ETRG torrent
The Hustle 2019 HDCAM x264 AC3 ETRG torrent
Pokemon  Detective Pikachu 2019 HDCAM x264 AC3-ETRG torrent
John Wick 3 2019 HDCAM x264 -ETRG torrent

ETTV Recommended Foreign
24 Kisses (2018) 720p UNCUT HDRip x264 ESubs [Dual Audio] [Hindi DD 2.0 - Telugu DD 2.0]  -UnknownStAr [Telly] torrent
Mother India.1957.1080p.WEB-DL.AVC.AAC.DDR torrent
Chestnut - Hero of Central Park (2004) 720p HDTVRip x264 Eng Subs [Dual Audio] [Hindi DD 2.0 - English DD 5.1] Exclusive By -=!Dr.STAR!=- torrent
Mard Ko Dard Nahi Hota.2019.1080p.NF.WEB.DL.H264.DDP.5.1.MSUBS-Telly[EtHD] torrent


Download Torrent "Split (2016) (1080p BluRay 10bit x265 HEVC AAC 5.1 Qman) [UTR]"

IMDB Details
Description:

Three girls are kidnapped by a man with a diagnosed 23 distinct personalities. They must try to escape before the apparent emergence of a frightful new 24th.

Genre:

Horror, Thriller

Download Torrent (Magnet)
Download Torrent (File)
Seeds: 116
Leechers: 4
Completed: 1,517 
Last Checked: 04-12-2018 15:00:35


Loading...
Details
Title:Split (2016) (1080p BluRay 10bit x265 HEVC AAC 5.1 Qman) [UTR]
Description:
[img="https://i.postimg.cc/hjkyHjgc/pirate-shark-banner-with-forum-site-address-www-imagesplitter-n.png" alt=""][img="https://i.postimg.cc/CLHPQS2p/pirate-shark-banner-with-forum-site-address-www-imagesplitter-n.png" alt=""]
[img="https://i.postimg.cc/13vWyMPW/pirate-shark-banner-with-forum-site-address-www-imagesplitter-n.png" alt=""][img="https://i.postimg.cc/yNWLx987/pirate-shark-banner-with-forum-site-address-www-imagesplitter-n.png" alt=""]





Media Information
General
Format : Matroska
Format version : Version 4 / Version 2
File size : 2.50 GiB
Duration : 1 h 57 min
Overall bit rate : 3 055 kb/s
Encoded date : UTC 2018-12-04 00:41:52
Writing application : mkvmerge v29.0.0 ('Like It Or Not') 64-bit
Writing library : libebml v1.3.6 + libmatroska v1.4.9

Video
ID : 1
Format : HEVC
Format/Info : High Efficiency Video Coding
Format profile : Main [email protected]@Main
Codec ID : V_MPEGH/ISO/HEVC
Duration : 1 h 57 min
Bit rate : 2 645 kb/s
Width : 1 920 pixels
Height : 804 pixels
Display aspect ratio : 2.40:1
Frame rate mode : Constant
Frame rate : 23.976 (24000/1001) FPS
Color space : YUV
Chroma subsampling : 4:2:0
Bit depth : 10 bits
Bits/(Pixel*Frame) : 0.071
Stream size : 2.16 GiB (87%)
Writing library : x265 2.9+8-27d8424c799d:[Windows][MSVC 1915][64 bit] 10bit
Encoding settings : cpuid=1111039 / frame-threads=4 / numa-pools=16 / wpp / no-pmode / no-pme / no-psnr / no-ssim / log-level=2 / input-csp=1 / input-res=1920x804 / interlace=0 / total-frames=168500 / level-idc=0 / high-tier=1 / uhd-bd=0 / ref=4 / no-allow-non-conformance / no-repeat-headers / annexb / no-aud / no-hrd / info / hash=0 / no-temporal-layers / open-gop / min-keyint=23 / keyint=250 / gop-lookahead=0 / bframes=8 / b-adapt=2 / b-pyramid / bframe-bias=0 / rc-lookahead=70 / lookahead-slices=4 / scenecut=40 / radl=0 / no-intra-refresh / ctu=64 / min-cu-size=8 / rect / no-amp / max-tu-size=32 / tu-inter-depth=1 / tu-intra-depth=1 / limit-tu=0 / rdoq-level=2 / dynamic-rd=0.00 / no-ssim-rd / signhide / no-tskip / nr-intra=0 / nr-inter=0 / no-constrained-intra / no-strong-intra-smoothing / max-merge=3 / limit-refs=3 / limit-modes / me=3 / subme=5 / merange=57 / temporal-mvp / weightp / no-weightb / no-analyze-src-pics / deblock=-1:-1 / no-sao / no-sao-non-deblock / rd=4 / no-early-skip / no-rskip / no-fast-intra / no-tskip-fast / no-cu-lossless / b-intra / no-splitrd-skip / rdpenalty=0 / psy-rd=1.50 / psy-rdoq=5.00 / no-rd-refine / no-lossless / cbqpoffs=-3 / crqpoffs=-3 / rc=crf / crf=21.0 / qcomp=0.60 / qpstep=4 / stats-write=0 / stats-read=0 / ipratio=1.40 / pbratio=1.30 / aq-mode=3 / aq-strength=1.00 / cutree / zone-count=0 / no-strict-cbr / qg-size=32 / no-rc-grain / qpmax=69 / qpmin=0 / no-const-vbv / sar=0 / overscan=0 / videoformat=5 / range=0 / colorprim=2 / transfer=2 / colormatrix=2 / chromaloc=0 / display-window=0 / max-cll=0,0 / min-luma=0 / max-luma=1023 / log2-max-poc-lsb=8 / vui-timing-info / vui-hrd-info / slices=1 / no-opt-qp-pps / no-opt-ref-list-length-pps / no-multi-pass-opt-rps / scenecut-bias=0.05 / no-opt-cu-delta-qp / no-aq-motion / no-hdr / no-hdr-opt / no-dhdr10-opt / no-idr-recovery-sei / analysis-reuse-level=5 / scale-factor=0 / refine-intra=0 / refine-inter=0 / refine-mv=0 / no-limit-sao / ctu-info=0 / no-lowpass-dct / refine-mv-type=0 / copy-pic=1 / max-ausize-factor=1.0 / no-dynamic-refine / no-single-sei
Language : English
Default : Yes
Forced : No

Audio
ID : 2
Format : AAC
Format/Info : Advanced Audio Codec
Format profile : LC
Codec ID : A_AAC
Duration : 1 h 57 min
Bit rate : 398 kb/s
Channel(s) : 6 channels
Channel positions : Front: L C R, Side: L R, LFE
Sampling rate : 48.0 kHz
Frame rate : 46.875 FPS (1024 spf)
Compression mode : Lossy
Delay relative to video : 9 ms
Stream size : 333 MiB (13%)
Language : English
Default : Yes
Forced : No

Subtitle
ID : 3
Format : PGS
Muxing mode : zlib
Codec ID : S_HDMV/PGS
Codec ID/Info : Picture based subtitle format used on BDs/HD-DVDs
Duration : 1 h 51 min
Bit rate : 33.7 kb/s
Count of elements : 2883
Stream size : 26.8 MiB (1%)
Language : English
Default : Yes
Forced : No

Menu
00:00:00.000 : en:Chapter 01
00:06:08.451 : en:Chapter 02
00:14:19.024 : en:Chapter 03
00:20:49.373 : en:Chapter 04
00:24:14.536 : en:Chapter 05
00:28:37.048 : en:Chapter 06
00:35:47.979 : en:Chapter 07
00:42:35.386 : en:Chapter 08
00:49:06.068 : en:Chapter 09
00:54:09.412 : en:Chapter 10
01:00:24.495 : en:Chapter 11
01:06:22.561 : en:Chapter 12
01:12:31.221 : en:Chapter 13
01:19:35.771 : en:Chapter 14
01:25:25.829 : en:Chapter 15
01:29:16.559 : en:Chapter 16
01:34:08.225 : en:Chapter 17
01:40:45.998 : en:Chapter 18
01:47:40.287 : en:Chapter 19
01:52:26.740 : en:Chapter 20

Source Information
Release: Unknown Source/NO-GROUP

Category:Movies > HEVC/x265
Lang:English  English
Total Size:2.50 GB
Info Hash:931942444cacde585308236837339d7728819f6e
Added By:UTR
Date Added:04-12-2018 15:00:27

Files

File List: 
 File Size
Split.(2016).1080p.BluRay.10-bit.x265.AAC.5.1 Qman[UTR].mkv2.50 GB



Comments

There are currently no comments. Be the first one to write something !