game of thrones s08e05 pet sematary 2019 game of thrones s08e03 little 2019 the fix s01e10 avengers endgame 2019 pokemon detective pikachu 2019 2.0 (2018) what men want 2019 chernobyl s01e03 hellboy 2019 tushy 18.12 1080p.mp4-ktr long shot 2019 evo avengers endgame game of thrones s08e06 brightburn 2019 aladdin 2019 fighting with my family 2019 spider man into the spider verse 2018 the intruder 2019 the code s01e07 john wick 3 captain marvel a madea family funeral 2019 ddr supergirl s04e22 Ettv ethd shazam game of thrones s08e01 game of thrones s08e04 chernobyl ncis los angeles s10e24 arrow español john wick chapter 3 – parabellum 2019 WWE dcs legends of tomorrow s04e16 Supergirl cold pursuit 2019 glass 2019 the enemy within s01e13 The Enemy Within The Code good girls s02e12 us 2019 john wick john wick 2014 Legends Of Tomorrow legends of tomorrow s04e16 chernobyl s01e01 hindi the curse of la llorona 2019 big bang theory killing eve etmovies the hustle 2019 john wick chapter 2 2017 the 100 s06e04 The 100 The Big Bang Theory s12e23 The Fix tushyraw 1080p.mp4-ktr aquaman 2018 etrg shazam 2019 billions game of thrones captain marvel 2019 men in black international 2019 killing eve s02e07 yts 
Warning! Use a VPN When Downloading Torrents!
Your IP Address is 34.229.151.87. Location is United States
Your Internet Provider is tracking your torrent activity! Hide your IP ADDRESS with a VPN!
We strongly recommend using ExpressVPN to anonymize your torrenting. 30 Day Money Back Guarantee!
Try it Now!
ETTV Recommended TV Shows
Chernobyl.S01E03.1080p.WEB.x265.10bit.6CH.ReEnc-LUMI.mp4 torrent
NCIS.S16E24.HDTV.x264-SVA[ettv] torrent
Deadliest.Catch.S15E07.WEB.x264-TBS[ettv] torrent
The.Last.O.G.S02E08.WEBRip.x264-TBS[ettv] torrent
Blood.and.Treasure.S01E01-E02.HDTV.x264-SVA[ettv] torrent
The.100.S06E04.WEB.h264-TBS[ettv] torrent

ETTV Recommended SD
A.Madea.Family.Funeral.2019.HDRip.XViD-ETRG torrent
Gloria.Bell.2019.HDRip.XviD.AC3-EVO torrent
Run.the.Race.2019.HDRip.XViD-ETRG torrent
Shazam.2019.HC.HDRip.XViD.AC3-ETRG torrent

ETTV Recommended HD
Shazam.2019.1080p.V3.HC.HDRip.X264-EVO[EtHD] torrent
Miami.Vice.2006.720p.NF.WEB-DL.H264-ETRG[EtHD] torrent
Indecent.Proposal.1993.720p.NF.WEB-DL.H264-ETRG[EtHD] torrent
The.Blues.Brothers.1980.720p.NF.WEB-DL.H264-ETRG[EtHD] torrent

ETTV Recommended UHD
Crank 2006.UHD.BluRay.2160p.HDR.HEVC.Atmos.7.1-DDR torrent
Aquaman 2018 1080p BDrip  x265 7.1 TrueHD Atmos D0ct0rLew[SEV] torrent
Field of Dreams 1989.Multi.UHD.2160p.Blu-ray.HDR.HEVC.DTS-HDMA.5.1-DDR torrent
Godzilla 1998.MULTi.UHD.2160p.HDR.HEVC.Atmos.7.1-DDR torrent

ETTV Recommended Cam
Brightburn 2019 HDCAM x264 AC3-ETRG torrent
The Hustle 2019 HDCAM x264 AC3 ETRG torrent
Pokemon  Detective Pikachu 2019 HDCAM x264 AC3-ETRG torrent
John Wick 3 2019 HDCAM x264 -ETRG torrent

ETTV Recommended Foreign
24 Kisses (2018) 720p UNCUT HDRip x264 ESubs [Dual Audio] [Hindi DD 2.0 - Telugu DD 2.0]  -UnknownStAr [Telly] torrent
Mother India.1957.1080p.WEB-DL.AVC.AAC.DDR torrent
Chestnut - Hero of Central Park (2004) 720p HDTVRip x264 Eng Subs [Dual Audio] [Hindi DD 2.0 - English DD 5.1] Exclusive By -=!Dr.STAR!=- torrent
Mard Ko Dard Nahi Hota.2019.1080p.NF.WEB.DL.H264.DDP.5.1.MSUBS-Telly[EtHD] torrent


Download Torrent "Supernatural S14E07 (1080p AMZN WEB-DL x265 HEVC 10bit AC3 5.1 Qman) [UTR]"

IMDB Details
Description:

N/A

Genre:

N/A

Download Torrent (Magnet)
Download Torrent (File)
Seeds: 208
Leechers: 29
Completed: 2,765 
Last Checked: 04-12-2018 15:03:50


Loading...
Details
Title:Supernatural S14E07 (1080p AMZN WEB-DL x265 HEVC 10bit AC3 5.1 Qman) [UTR]
Description:
[img="https://i.postimg.cc/hjkyHjgc/pirate-shark-banner-with-forum-site-address-www-imagesplitter-n.png" alt=""][img="https://i.postimg.cc/CLHPQS2p/pirate-shark-banner-with-forum-site-address-www-imagesplitter-n.png" alt=""]
[img="https://i.postimg.cc/13vWyMPW/pirate-shark-banner-with-forum-site-address-www-imagesplitter-n.png" alt=""][img="https://i.postimg.cc/yNWLx987/pirate-shark-banner-with-forum-site-address-www-imagesplitter-n.png" alt=""]




Media Information
General
Format : Matroska
Format version : Version 4 / Version 2
File size : 829 MiB
Duration : 41 min 49 s
Overall bit rate : 2 772 kb/s
Encoded date : UTC 2018-12-03 17:45:20
Writing application : mkvmerge v28.0.0 ('Voice In My Head') 64-bit
Writing library : libebml v1.3.6 + libmatroska v1.4.9

Video
ID : 1
Format : HEVC
Format/Info : High Efficiency Video Coding
Format profile : Main [email protected]@Main
Codec ID : V_MPEGH/ISO/HEVC
Duration : 41 min 49 s
Bit rate : 2 130 kb/s
Width : 1 920 pixels
Height : 1 080 pixels
Display aspect ratio : 16:9
Frame rate mode : Constant
Frame rate : 23.976 (24000/1001) FPS
Color space : YUV
Chroma subsampling : 4:2:0
Bit depth : 10 bits
Bits/(Pixel*Frame) : 0.043
Stream size : 637 MiB (77%)
Writing library : x265 2.9+8-27d8424c799d:[Windows][MSVC 1915][64 bit] 10bit
Encoding settings : cpuid=1111039 / frame-threads=2 / numa-pools=4 / wpp / no-pmode / no-pme / no-psnr / no-ssim / log-level=2 / input-csp=1 / input-res=1920x1080 / interlace=0 / total-frames=60177 / level-idc=0 / high-tier=1 / uhd-bd=0 / ref=4 / no-allow-non-conformance / no-repeat-headers / annexb / no-aud / no-hrd / info / hash=0 / no-temporal-layers / open-gop / min-keyint=23 / keyint=250 / gop-lookahead=0 / bframes=8 / b-adapt=2 / b-pyramid / bframe-bias=0 / rc-lookahead=50 / lookahead-slices=4 / scenecut=40 / radl=0 / no-intra-refresh / ctu=64 / min-cu-size=8 / no-rect / no-amp / max-tu-size=32 / tu-inter-depth=1 / tu-intra-depth=1 / limit-tu=0 / rdoq-level=2 / dynamic-rd=0.00 / no-ssim-rd / signhide / no-tskip / nr-intra=0 / nr-inter=0 / no-constrained-intra / no-strong-intra-smoothing / max-merge=3 / limit-refs=3 / limit-modes / me=3 / subme=3 / merange=57 / temporal-mvp / weightp / no-weightb / no-analyze-src-pics / deblock=1:1 / no-sao / no-sao-non-deblock / rd=4 / no-early-skip / no-rskip / no-fast-intra / no-tskip-fast / no-cu-lossless / no-b-intra / no-splitrd-skip / rdpenalty=0 / psy-rd=1.40 / psy-rdoq=1.00 / no-rd-refine / no-lossless / cbqpoffs=0 / crqpoffs=0 / rc=crf / crf=21.0 / qcomp=0.60 / qpstep=4 / stats-write=0 / stats-read=0 / ipratio=1.40 / pbratio=1.30 / aq-mode=2 / aq-strength=1.00 / cutree / zone-count=0 / no-strict-cbr / qg-size=32 / no-rc-grain / qpmax=69 / qpmin=0 / no-const-vbv / sar=0 / overscan=0 / videoformat=5 / range=0 / colorprim=2 / transfer=2 / colormatrix=2 / chromaloc=0 / display-window=0 / max-cll=0,0 / min-luma=0 / max-luma=1023 / log2-max-poc-lsb=8 / vui-timing-info / vui-hrd-info / slices=1 / no-opt-qp-pps / no-opt-ref-list-length-pps / no-multi-pass-opt-rps / scenecut-bias=0.05 / no-opt-cu-delta-qp / no-aq-motion / no-hdr / no-hdr-opt / no-dhdr10-opt / no-idr-recovery-sei / analysis-reuse-level=5 / scale-factor=0 / refine-intra=0 / refine-inter=0 / refine-mv=0 / no-limit-sao / ctu-info=0 / no-lowpass-dct / refine-mv-type=0 / copy-pic=1 / max-ausize-factor=1.0 / no-dynamic-refine / no-single-sei
Language : English
Default : Yes
Forced : No

Audio
ID : 2
Format : E-AC-3
Format/Info : Enhanced Audio Coding 3
Format settings, Endianness : Big
Codec ID : A_EAC3
Duration : 41 min 49 s
Bit rate mode : Constant
Bit rate : 640 kb/s
Channel(s) : 6 channels
Channel positions : Front: L C R, Side: L R, LFE
Sampling rate : 48.0 kHz
Frame rate : 187.500 FPS (256 spf)
Compression mode : Lossy
Stream size : 191 MiB (23%)
Language : English
Default : Yes
Forced : No

Subtitle
ID : 3
Format : UTF-8
Codec ID : S_TEXT/UTF8
Codec ID/Info : UTF-8 Plain Text
Duration : 41 min 48 s
Bit rate : 69 b/s
Count of elements : 854
Stream size : 21.1 KiB (0%)
Language : English
Default : Yes
Forced : No

Source Information
Release: Unknown Source/NO-GROUP

Category:TV > HEVC/x265
Lang:English  English
Total Size:829 MB
Info Hash:75849daedc75bbd9b5123c475f6b3c4a731b874c
Added By:UTR
Date Added:04-12-2018 15:03:42

Files

File List: 
 File Size
Supernatural.S14E07.1080p.AMZN.WEB-DL.x265.10bit.EAC3.6.0-Qman[UTR].mkv829 MB



Comments

There are currently no comments. Be the first one to write something !