pokemon detective pikachu 2019 avengers endgame 2019 cold pursuit 2019 john wick 2014 charmed s01e22 supergirl s04e22 game of thrones s08e03 billions aquaman 2018 spider man into the spider verse 2018 charmed Hindi captain marvel Game.of.Thrones.S08E06 game of thrones s08e05 2.0 (2018) tushyraw 1080p.mp4-ktr long shot 2019 game ethd brightburn 2019 barry Wwe ddr game of thrones s08e04 the curse of la llorona 2019 yts good girls s02e12 game of thrones s08e01 what men want 2019 game of thrones season 8 tushy 18.12 1080p.mp4-ktr pet sematary 2019 glass 2019 deep state s08e06 Game.of.Thrones ncis los angeles s10e24 killing eve fighting with my family 2019 game of thrones thrones john wick chapter 2 2017 little 2019 john wick chapter 3 – parabellum 2019 aladdin 2019 shazam 2019 last week tonight the intruder 2019 etrg killing eve s02e07 chernobyl evo barry s02e08 game of captain marvel 2019 Game of Thrones S08E06 1080p avengers endgame Game of thrones S08 ettv The Big Bang Theory s12e23 John wick chernobyl s01e03 etmovies us 2019 hellboy 2019 the hustle 2019 keeping up with the kardashians s16e07 the blacklist s06e22 game of thrones season 8 episode 6 the upside 2019 game of thrones s08e06 supergirl 
Warning! Use a VPN When Downloading Torrents!
Your IP Address is 54.157.61.68. Location is United States
Your Internet Provider is tracking your torrent activity! Hide your IP ADDRESS with a VPN!
We strongly recommend using ExpressVPN to anonymize your torrenting. 30 Day Money Back Guarantee!
Try it Now!
ETTV Recommended TV Shows
Mrs.Wilson.S01.1080i.BluRay.MHD.X264.DD.5.1-DDR torrent
WWE Money In The Bank 2019 PPV WEB h264-HEEL [TJET] torrent
The.Fix.2019.S01E10.HDTV.x264-KILLERS[ettv] torrent
DCs.Legends.of.Tomorrow.S04E16.HDTV.x264-KILLERS[ettv] torrent
The.Enemy.Within.S01E13.HDTV.x264-LucidTV[ettv] torrent
The.Code.2019.S01E07.WEB.x264-TBS[ettv] torrent

ETTV Recommended SD
A.Madea.Family.Funeral.2019.HDRip.XViD-ETRG torrent
Gloria.Bell.2019.HDRip.XviD.AC3-EVO torrent
Run.the.Race.2019.HDRip.XViD-ETRG torrent
Shazam.2019.HC.HDRip.XViD.AC3-ETRG torrent

ETTV Recommended HD
Bright.Lights.Big.City.1988.1080p.BluRay.MHD.X264.DD.2.0-DDR torrent
Sgt.Will.Gardner.2019.1080p.NF.WEB-DL.H264-ETRG[EtHD] torrent
Gloria.Bell.2019.1080p.WEB-DL.H264.AC3-EVO[EtHD] torrent
Run.the.Race.2019.1080p.WEB-DL.H264.AC3-EVO[EtHD] torrent

ETTV Recommended UHD
Crank 2006.UHD.BluRay.2160p.HDR.HEVC.Atmos.7.1-DDR torrent
Aquaman 2018 1080p BDrip  x265 7.1 TrueHD Atmos D0ct0rLew[SEV] torrent
Field of Dreams 1989.Multi.UHD.2160p.Blu-ray.HDR.HEVC.DTS-HDMA.5.1-DDR torrent
Godzilla 1998.MULTi.UHD.2160p.HDR.HEVC.Atmos.7.1-DDR torrent

ETTV Recommended Cam
Brightburn 2019 HDCAM x264 AC3-ETRG torrent
The Hustle 2019 HDCAM x264 AC3 ETRG torrent
Pokemon  Detective Pikachu 2019 HDCAM x264 AC3-ETRG torrent
John Wick 3 2019 HDCAM x264 -ETRG torrent

ETTV Recommended Foreign
Hotel Milan.2018.1080p.WEB-DL.AVC.AAC.ESub.DDR torrent
Gordy (1995) 720p WEB-DL x264 Eng Subs [Dual Audio] [Hindi DD 2.0 - English 2.0] Exclusive By -=!Dr.STAR!=- torrent
Welcome to Marwen - Benvenuti a Marwen (2018).1080p.H264.italian.english.Ac3-5.1.sub.ita.eng-MIRCrew torrent
24 Kisses (2018) 720p UNCUT HDRip x264 ESubs [Dual Audio] [Hindi DD 2.0 - Telugu DD 2.0]  -UnknownStAr [Telly] torrent


Download Torrent "The Nun (2018) 1080p BluRay x264 Dual Audio [Hindi DD5.1 - English DD5.1] -..."

IMDB Details
Description:

A priest with a haunted past and a novice on the threshold of her final vows are sent by the Vatican to investigate the death of a young nun in Romania and confront a malevolent force in the form of a demonic nun.

Genre:

Horror, Mystery, Thriller

Download Torrent (Magnet)
Download Torrent (File)
Seeds: 142
Leechers: 242
Completed: 1,199 
Last Checked: 06-12-2018 14:53:51


Loading...
Details
Title:The Nun (2018) 1080p BluRay x264 Dual Audio [Hindi DD5.1 - English DD5.1] -...
Description:






The Nun (2018) 1080p BluRay x264 Dual Audio [Hindi DD5.1 - English DD5.1] - ESUB ~ Ranvijay

Format : Matroska
Format version : Version 4 / Version 2
File size : 4.79 GiB
Duration : 1 h 36 min
Overall bit rate : 7 096 kb/s
Movie name : The Nun (2018) 1080p BluRay x264 Dual Audio [Hindi DD5.1 - English DD5.1] - ESUB ~ Ranvijay

Video
ID : 1
Format : AVC
Format/Info : Advanced Video Codec
Duration : 1 h 36 min
Bit rate : 6 000 kb/s
Width : 1 920 pixels
Height : 800 pixels
Display aspect ratio : 2.40:1
Frame rate mode : Constant
Frame rate : 23.976 (24000/1001) FPS
Color space : YUV
Chroma subsampling : 4:2:0
Bit depth : 8 bits
Scan type : Progressive
Bits/(Pixel*Frame) : 0.163
Stream size : 4.05 GiB (85%)
Title : ~Ranvijay~

Audio #1
ID : 2
Format : AC-3
Format/Info : Audio Coding 3
Codec ID : A_AC3
Duration : 1 h 36 min
Bit rate mode : Constant
Bit rate : 640 kb/s
Channel(s) : 6 channels
Channel positions : Front: L C R, Side: L R, LFE
Sampling rate : 48.0 kHz
Frame rate : 31.250 FPS (1536 SPF)
Bit depth : 16 bits
Compression mode : Lossy
Stream size : 442 MiB (9%)
Title : ~Ranvijay~
Language : Hindi
Service kind : Complete Main
Default : Yes
Forced : Yes

Audio #2
ID : 3
Format : AC-3
Format/Info : Audio Coding 3
Codec ID : A_AC3
Duration : 1 h 36 min
Bit rate mode : Constant
Bit rate : 448 kb/s
Channel(s) : 6 channels
Channel positions : Front: L C R, Side: L R, LFE
Sampling rate : 48.0 kHz
Frame rate : 31.250 FPS (1536 SPF)
Bit depth : 16 bits
Compression mode : Lossy
Stream size : 309 MiB (6%)
Title : ~Ranvijay~
Service kind : Complete Main
Default : No
Forced : No

Text
ID : 4
Format : PGS
Muxing mode : zlib
Codec ID : S_HDMV/PGS
Codec ID/Info : Picture based subtitle format used on BDs/HD-DVDs
Duration : 1 h 35 min
Bit rate : 25.5 kb/s
Count of elements : 1885
Stream size : 17.4 MiB (0%)
Title : ~Ranvijay~
Language : English
Default : Yes
Forced : Yes

Menu
00:00:00.000 : en:00:00:00.000
00:08:42.772 : en:00:08:42.772
00:17:55.074 : en:00:17:55.074
00:29:17.505 : en:00:29:17.505
00:38:05.032 : en:00:38:05.032
00:48:49.800 : en:00:48:49.800
00:58:49.192 : en:00:58:49.192
01:09:16.944 : en:01:09:16.944
01:18:14.564 : en:01:18:14.564
01:24:18.636 : en:01:24:18.636
01:32:30.293 : en:01:32:30.293














Don't walk as you are king, walk as you don't care who the king is....!!

Category:Movies > Dubs/Dual Audio
Lang:Hindi  Hindi
Total Size:4.81 GB
Info Hash:b55243700bb865db824309cf66fb928eec39782d
Added By:TheFighter
Date Added:06-12-2018 14:53:22

  

Files

File List: 
 File Size
Sample - The Nun (2018) 1080p BluRay x264 Dual Audio [Hindi DD5.1 - English DD5.1] - ESUB ~ Ranvijay.mkv23 MB
The Nun (2018) 1080p BluRay x264 Dual Audio [Hindi DD5.1 - English DD5.1] - ESUB ~ Ranvijay.mkv4.79 GB



Comments

There are currently no comments. Be the first one to write something !