murder mystery 2019 alita battle angel 2019 hindi the secret life of pets 2 2019 dumbo etmovies captive state 2019 pokemon detective pikachu 2019 rocketman 2019 CHERNOBYL ITA grand hotel s01e01 i am mother 2019 wonder park 2019 a madea family funeral 2019 big little lies john wick chapter 3 – parabellum 2019 brightburn 2019 yts the 100 s06e07 euphoria s01e01 alita battle angel chernobyl godzilla king of the monsters 2019 fear the walking dead s05e03 the hustle 2019 wwe aquaman 2018 john wick 3 the chi s02e10 chernobyl s01e01 Euphoria glass 2019 american dad dumbo 2019 long shot 2019 aladdin 2019 claws s03e02 shazam 2019 wentworth s07e04 hellboy 2019 captain marvel love hip hop atlanta s08e14 shaft 2019 ma 2019 arrow español endgame cold pursuit 2019 etrg jessica jones ethd once upon a time in hollywood 2019 captain marvel 2019 one punch man little 2019 hotel mumbai 2019 daughter of the wolf 2019 the intruder 2019 men in black international 2019 2.0 (2018) Xxx big little lies s02e02 us 2019 avengers endgame fear the walking dead toy story 4 2019 dark phoenix 2019 Alita ddr spider man into the spider verse 2018 avengers endgame 2019 evo ettv 
Warning! Use a VPN When Downloading Torrents!
Your IP Address is 3.90.108.129. Location is United States
Your Internet Provider is tracking your torrent activity! Hide your IP ADDRESS with a VPN!
We strongly recommend using ExpressVPN to anonymize your torrenting. 30 Day Money Back Guarantee!
Try it Now!
ETTV Recommended TV Shows
Blood.and.Treasure.S01E06.HDTV.x264-KILLERS[ettv] torrent
Animal.Kingdom.US.S04E04.WEBRip.x264-TBS[ettv] torrent
The.100.S06E07.HDTV.x264-SVA[ettv] torrent
The.Handmaids.Tale.S03E05.WEBRip.x264-TBS[ettv] torrent

ETTV Recommended SD
Beats.2019.HDRip.XviD.AC3-EVO torrent
Marriage.Killer.2019.HDRip.XviD.AC3-EVO torrent
Miss.Dali.2019.HDRip.XviD.AC3-EVO torrent
Chase.2019.HDRip.XViD-ETRG torrent

ETTV Recommended HD
Crypto 2019.MULTi.BluRay.1080p.HEVC.DTS-HD.MA5.1-DDR torrent
VS.2019.1080p.NF.WEB-DL.H264-ETRG[EtHD] torrent
Beats.2019.1080p.NF.WEB-DL.DDP5.1.H264-CMRG[EtHD] torrent
Strange.Events.2.2019.1080p.AMZN.WEB-DL.DDP2.0.H264-CMRG[EtHD] torrent

ETTV Recommended UHD
Captain Marvel 2019.MULTi.UHD.BluRay.2160p.HEVC.HDR.Atmos.7.1-DDR torrent
Dumbo.2019.UHD.BluRay.2160p.HDR.Atmos.7.1.HEVC-DDR torrent
Mia and the White Lion 2018 2160p UHD Blu-ray HEVC HDR DTS-HD MA 5.1-DDR torrent
Hansel and Gretel-Witch Hunters 2013.Theatrical.2160p.UHD.BluRay.HEVC.HDR.TrueHD.5.1-DDR torrent

ETTV Recommended Cam
Shaft.2019.HDTC.x264.AC3-ETRG torrent
Avengers Endgame.2019.HDTC.x264.AC3-ETRG torrent
The Intruder 2019 HDCAM-1XBET torrent
Godzilla King of the Monsters 2019 720p NEW HD-TS-1XBET torrent

ETTV Recommended Foreign
Plan Egg (2017) x264 720p WEB-DL {Dual Audio} [Hindi ORG DD 2.0 + Chinese 2.0] Exclusive By DREDD torrent
Demonte Colony.2015.720p.WEB-DL.AVC.AAC.DDR torrent
Shailaja Reddy Alludu.2018.1080p.WEB-DL.AVC.AAC.ESub.DDR torrent
Boles.2013.720p.WEBRip.x264.AAC.HORiZON-ArtSubs torrent


Download Torrent "Vikings S01 1080p Webrip x265 EAC3 5.1 Goki [SEV]"

IMDB Details
Description:

Vikings transports us to the brutal and mysterious world of Ragnar Lothbrok, a Viking warrior and farmer who yearns to explore - and raid - the distant shores across the ocean.

Genre:

Action, Adventure, Drama

Download Torrent (Magnet)
Download Torrent (File)
Seeds: 52
Leechers: 42
Completed: 419 
Last Checked: 05-01-2019 07:29:54


Details
Title:Vikings S01 1080p Webrip x265 EAC3 5.1 Goki [SEV]
Description:






Media Information

Format : Matroska
Format version : Version 4
File size : 974 MiB
Duration : 44 min 11 s
Overall bit rate : 3 083 kb/s
Encoded date : UTC 2019-01-02 09:08:46
Writing application : mkvmerge v13.0.0 ('The Juggler') 64bit
Writing library : libebml v1.3.4 + libmatroska v1.4.5 / Lavf57.73.100
Writing application : Internet Friendly Media Encoder v7.7 ('Prism Ark')
Writing library : IFME v7.7 amd64 windows

Video
ID : 1
Format : HEVC
Format/Info : High Efficiency Video Coding
Format profile : Main [email protected]@Main
Codec ID : V_MPEGH/ISO/HEVC
Duration : 44 min 11 s
Bit rate : 2 382 kb/s
Width : 1 920 pixels
Height : 1 080 pixels
Display aspect ratio : 16:9
Frame rate mode : Constant
Frame rate : 23.976 (24000/1001) FPS
Color space : YUV
Chroma subsampling : 4:2:0
Bit depth : 10 bits
Bits/(Pixel*Frame) : 0.048
Stream size : 753 MiB (77%)
Writing library : x265 2.9+8-27d8424c799d:[Windows][MSVC 1915][64 bit] 10bit
Encoding settings : cpuid=1111039 / frame-threads=3 / numa-pools=8 / wpp / no-pmode / no-pme / no-psnr / no-ssim / log-level=2 / input-csp=1 / input-res=1920x1080 / interlace=0 / total-frames=0 / level-idc=0 / high-tier=1 / uhd-bd=0 / ref=4 / no-allow-non-conformance / no-repeat-headers / annexb / no-aud / no-hrd / info / hash=0 / no-temporal-layers / open-gop / min-keyint=23 / keyint=250 / gop-lookahead=0 / bframes=8 / b-adapt=2 / b-pyramid / bframe-bias=0 / rc-lookahead=100 / lookahead-slices=4 / scenecut=40 / radl=0 / no-intra-refresh / ctu=64 / min-cu-size=8 / no-rect / no-amp / max-tu-size=32 / tu-inter-depth=1 / tu-intra-depth=1 / limit-tu=0 / rdoq-level=2 / dynamic-rd=0.00 / no-ssim-rd / signhide / no-tskip / nr-intra=0 / nr-inter=0 / no-constrained-intra / no-strong-intra-smoothing / max-merge=3 / limit-refs=3 / limit-modes / me=3 / subme=5 / merange=57 / temporal-mvp / weightp / no-weightb / no-analyze-src-pics / deblock=0:0 / sao / no-sao-non-deblock / rd=4 / no-early-skip / rskip / no-fast-intra / no-tskip-fast / no-cu-lossless / no-b-intra / no-splitrd-skip / rdpenalty=0 / psy-rd=1.30 / psy-rdoq=2.00 / no-rd-refine / no-lossless / cbqpoffs=0 / crqpoffs=0 / rc=crf / crf=20.0 / qcomp=0.60 / qpstep=4 / stats-write=0 / stats-read=0 / ipratio=1.40 / pbratio=1.30 / aq-mode=2 / aq-strength=1.10 / cutree / zone-count=0 / no-strict-cbr / qg-size=32 / no-rc-grain / qpmax=69 / qpmin=0 / no-const-vbv / sar=1 / overscan=0 / videoformat=5 / range=0 / colorprim=2 / transfer=2 / colormatrix=2 / chromaloc=0 / display-window=0 / max-cll=0,0 / min-luma=0 / max-luma=1023 / log2-max-poc-lsb=8 / vui-timing-info / vui-hrd-info / slices=1 / no-opt-qp-pps / no-opt-ref-list-length-pps / no-multi-pass-opt-rps / scenecut-bias=0.05 / no-opt-cu-delta-qp / no-aq-motion / no-hdr / no-hdr-opt / no-dhdr10-opt / no-idr-recovery-sei / analysis-reuse-level=5 / scale-factor=0 / refine-intra=0 / refine-inter=0 / refine-mv=0 / no-limit-sao / ctu-info=0 / no-lowpass-dct / refine-mv-type=0 / copy-pic=1 / max-ausize-factor=1.0 / no-dynamic-refine / no-single-sei
Default : Yes
Forced : No

Audio
ID : 2
Format : E-AC-3
Format/Info : Enhanced AC-3
Commercial name : Dolby Digital Plus
Codec ID : A_EAC3
Duration : 44 min 11 s
Bit rate mode : Constant
Bit rate : 640 kb/s
Channel(s) : 6 channels
Channel layout : L R C LFE Ls Rs
Sampling rate : 48.0 kHz
Frame rate : 31.250 FPS (1536 SPF)
Compression mode : Lossy
Stream size : 202 MiB (21%)
Language : English
Service kind : Complete Main
Default : Yes
Forced : No

Text
ID : 3
Format : UTF-8
Codec ID : S_TEXT/UTF8
Codec ID/Info : UTF-8 Plain Text
Language : English
Default : Yes
Forced : No





We have no issue with individuals posting or re-uploading our torrents on a platform we aren't on. However, if this is something you'd like to do, please do so in a 'as-is' format. We ask that you do not create a new torrent, include all descriptions you see above including the SEV logo, tags, notes and screenshots. If you'd like to become a permanent poster on a website we don't post to, feel free to get in contact with a Sublime Encoded Video member.


We are recruiting/training new members for SEV & seedbox providers as well as people to help out with subtitles.
As you already know, we deliver quality, so you know the standard.
If you're interested, feel free to contact any of the team members.

Category:TV > HEVC/x265
Lang:English  English
Total Size:12.14 GB
Info Hash:60b7f6a417b0e2643aafeb22b0d1a35e8c005ab3
Added By:D0ct0rLew
Date Added:05-01-2019 07:29:48

Files

File List: 
 File Size
Vikings S01E01 Rites of Passage 1080p Webrip x265 EAC3 5.1 Goki [SEV].mkv974 MB
Vikings S01E02 Wrath of the Northmen 1080p Webrip x265 EAC3 5.1 Goki [SEV].mkv1.19 GB
Vikings S01E03 Dispossessed 1080p Webrip x265 EAC3 5.1 Goki [SEV].mkv1.50 GB
Vikings S01E04 Trial 1080p Webrip x265 EAC3 5.1 Goki [SEV].mkv1.31 GB
Vikings S01E05 Raid 1080p Webrip x265 EAC3 5.1 Goki [SEV].mkv1.70 GB
Vikings S01E06 Burial of the Dead 1080p Webrip x265 EAC3 5.1 Goki [SEV].mkv1.54 GB
Vikings S01E07 A Kings Ransom 1080p Webrip x265 EAC3 5.1 Goki [SEV].mkv1.43 GB
Vikings S01E08 Sacrifice 1080p Webrip x265 EAC3 5.1 Goki [SEV].mkv1.25 GB
Vikings S01E09 All Change 1080p Webrip x265 EAC3 5.1 Goki [SEV].mkv1.27 GB



Comments

<< Previous      Next >>
1 - 1

[Report] Posted: 11-01-2019 at 01:43:19
Goki


Thanks for posting my torrents D0ct0rLew and Kira,
I will now be posting using my own account which can be found at
https://www.ettv.tv/user/Goki

1 - 1
<< Previous      Next >>