euphoria s01e01 wonder park 2019 the intruder 2019 big little lies i am mother 2019 chernobyl s01e01 2.0 (2018) avengers endgame 2019 ettv little 2019 rocketman 2019 pet sematary 2019 avengers endgame swamp thing s01e03 shaft 2019 dark phoenix 2019 etmovies ddr godzilla king of the monsters 2019 john wick 3 the curse of la llorona 2019 spider man into the spider verse 2018 the upside 2019 captive state 2019 big little lies s02e02 the hustle 2019 hotel mumbai 2019 alita battle angel 2019 long shot 2019 captain marvel evo the poison rose 2019 claws s03e02 last week tonight fear the walking dead cold pursuit 2019 captain marvel 2019 ethd men in black international 2019 the mule 2018 deep state toy story 4 2019 a madea family funeral 2019 Euphoria glass 2019 dumbo 2019 alita battle angel jessica jones swamp thing hellboy 2019 dumbo once upon a time in hollywood 2019 shazam 2019 aladdin 2019 pokemon detective pikachu 2019 john wick chapter 2 2017 john wick 2014 yts Chernobyl HINDI us 2019 ma 2019 brightburn 2019 john wick chapter 3 – parabellum 2019 alita fear the walking dead s05e03 aquaman 2018 five feet apart 2019 the chi s02e10 etrg murder mystery 2019 the secret life of pets 2 2019 
Warning! Use a VPN When Downloading Torrents!
Your IP Address is 54.226.102.115. Location is United States
Your Internet Provider is tracking your torrent activity! Hide your IP ADDRESS with a VPN!
We strongly recommend using ExpressVPN to anonymize your torrenting. 30 Day Money Back Guarantee!
Try it Now!
ETTV Recommended TV Shows
Grand.Hotel.S01E01.HDTV.x264-KILLERS[ettv] torrent
American.Dad.S15E10.WEBRip.x264-TBS[ettv] torrent
WWE Monday Night Raw 2019 06 17 HDTV x264-NWCHD [TJET] torrent
The.Bachelorette.S15E06.WEB.h264-TBS[ettv] torrent

ETTV Recommended SD
Red.Joan.2019.HDRip.XviD.AC3-EVO torrent
Fast.Color.2019.HDRip.XviD.AC3-EVO torrent
The.Nightmare.Gallery.2018.HDRip.XviD.AC3-EVO torrent
The.Best.of.Enemies.2019.HDRip.XviD.AC3-EVO torrent

ETTV Recommended HD
American.Beauty.1999.1080p.NF.WEB-DL.H264-ETRG[EtHD] torrent
City of Lies (2019) (1080p BluRay x265 HEVC 10bit DTS 5.1 Qman) [UTR] torrent
Self.less.2015.BDRip.1080p.x264.DTS.DD5.1.Gerald torrent
15.Minutes.Of.War.2019.1080p.WEB-DL.H264.AC3-EVO[EtHD] torrent

ETTV Recommended UHD
Us 2019.MULTi.UHD.BluRay.2160p.HEVC.HDR.Atmos.7.1-DDR torrent
Captain Marvel 2019.MULTi.UHD.BluRay.2160p.HEVC.HDR.Atmos.7.1-DDR torrent
13 Hours-The Secret Soldiers of Benghazi 2016.UHD.BluRay.2160p.HEVC.HDR.Atmos.7.1-DDR torrent
The Man Who Killed Hitler and Then The Bigfoot 2018.MULTi.2160p.HEVC.HDR.DTS-HDMA.5.1-DDR torrent

ETTV Recommended Cam
Men in Black International 2019 HDCAM x264 AC3-ETRG torrent
Shaft.2019.HDTC.x264.AC3-ETRG torrent
Avengers Endgame.2019.HDTC.x264.AC3-ETRG torrent
The Intruder 2019 HDCAM-1XBET torrent

ETTV Recommended Foreign
Keluarga Cemara (2018) 720p WEB-DL x264 Ganool torrent
More.Than.Blue.2018.720p.BluRay.x264-Ganool torrent
Mississippi River Sharks (2017) x264 720p UNCUT HDTV Dual Subs {Dual Audio} [Hindi ORG DD 2.0 + English 2.0] Exclusive By DREDD torrent
The Blood Rose AKA La Rose Ecorchee 1970.MULTi.Blu-ray.2160p.HEVC.SDR.DTS-HDMA.5.1-DDR torrent


Download Torrent "Vikings S05E17 The Most Terrible Thing 1080p Webrip x265 EAC3 5.1 Goki [SEV..."

IMDB Details
Description:

N/A

Genre:

N/A

Download Torrent (Magnet)
Download Torrent (File)
Seeds: 356
Leechers: 96
Completed: 6,211 
Last Checked: 11-01-2019 08:36:03


Loading...
Details
Title:Vikings S05E17 The Most Terrible Thing 1080p Webrip x265 EAC3 5.1 Goki [SEV...
Description:









Media Information

Unique ID : 238886314072349866815311350853185630662 (0xB3B7D49F6CA551648B71D924CA40F1C6)
Format : Matroska
Format version : Version 4
File size : 857 MiB
Duration : 45 min 48 s
Overall bit rate : 2 615 kb/s
Encoded date : UTC 2019-01-11 06:44:34
Writing application : mkvmerge v13.0.0 ('The Juggler') 64bit
Writing library : libebml v1.3.4 + libmatroska v1.4.5 / Lavf57.73.100
Writing application : Internet Friendly Media Encoder v7.7 ('Prism Ark')
Writing library : IFME v7.7 amd64 windows

Video
ID : 1
Format : HEVC
Format/Info : High Efficiency Video Coding
Format profile : Main [email protected]@Main
Codec ID : V_MPEGH/ISO/HEVC
Duration : 45 min 48 s
Bit rate : 1 923 kb/s
Width : 1 920 pixels
Height : 1 080 pixels
Display aspect ratio : 16:9
Frame rate mode : Constant
Frame rate : 23.976 (24000/1001) FPS
Color space : YUV
Chroma subsampling : 4:2:0
Bit depth : 10 bits
Bits/(Pixel*Frame) : 0.039
Stream size : 630 MiB (74%)
Writing library : x265 2.9+8-27d8424c799d:[Windows][MSVC 1915][64 bit] 10bit
Encoding settings : cpuid=1111039 / frame-threads=3 / numa-pools=8 / wpp / no-pmode / no-pme / no-psnr / no-ssim / log-level=2 / input-csp=1 / input-res=1920x1080 / interlace=0 / total-frames=0 / level-idc=0 / high-tier=1 / uhd-bd=0 / ref=4 / no-allow-non-conformance / no-repeat-headers / annexb / no-aud / no-hrd / info / hash=0 / no-temporal-layers / open-gop / min-keyint=23 / keyint=250 / gop-lookahead=0 / bframes=8 / b-adapt=2 / b-pyramid / bframe-bias=0 / rc-lookahead=100 / lookahead-slices=4 / scenecut=40 / radl=0 / no-intra-refresh / ctu=64 / min-cu-size=8 / no-rect / no-amp / max-tu-size=32 / tu-inter-depth=1 / tu-intra-depth=1 / limit-tu=0 / rdoq-level=2 / dynamic-rd=0.00 / no-ssim-rd / signhide / no-tskip / nr-intra=0 / nr-inter=0 / no-constrained-intra / no-strong-intra-smoothing / max-merge=3 / limit-refs=3 / limit-modes / me=3 / subme=5 / merange=57 / temporal-mvp / weightp / no-weightb / no-analyze-src-pics / deblock=0:0 / sao / no-sao-non-deblock / rd=4 / no-early-skip / rskip / no-fast-intra / no-tskip-fast / no-cu-lossless / no-b-intra / no-splitrd-skip / rdpenalty=0 / psy-rd=1.30 / psy-rdoq=2.00 / no-rd-refine / no-lossless / cbqpoffs=0 / crqpoffs=0 / rc=crf / crf=20.0 / qcomp=0.60 / qpstep=4 / stats-write=0 / stats-read=0 / ipratio=1.40 / pbratio=1.30 / aq-mode=2 / aq-strength=1.10 / cutree / zone-count=0 / no-strict-cbr / qg-size=32 / no-rc-grain / qpmax=69 / qpmin=0 / no-const-vbv / sar=1 / overscan=0 / videoformat=5 / range=0 / colorprim=2 / transfer=2 / colormatrix=2 / chromaloc=0 / display-window=0 / max-cll=0,0 / min-luma=0 / max-luma=1023 / log2-max-poc-lsb=8 / vui-timing-info / vui-hrd-info / slices=1 / no-opt-qp-pps / no-opt-ref-list-length-pps / no-multi-pass-opt-rps / scenecut-bias=0.05 / no-opt-cu-delta-qp / no-aq-motion / no-hdr / no-hdr-opt / no-dhdr10-opt / no-idr-recovery-sei / analysis-reuse-level=5 / scale-factor=0 / refine-intra=0 / refine-inter=0 / refine-mv=0 / no-limit-sao / ctu-info=0 / no-lowpass-dct / refine-mv-type=0 / copy-pic=1 / max-ausize-factor=1.0 / no-dynamic-refine / no-single-sei
Default : Yes
Forced : No

Audio
ID : 2
Format : E-AC-3
Format/Info : Enhanced AC-3
Commercial name : Dolby Digital Plus
Codec ID : A_EAC3
Duration : 45 min 48 s
Bit rate mode : Constant
Bit rate : 640 kb/s
Channel(s) : 6 channels
Channel layout : L R C LFE Ls Rs
Sampling rate : 48.0 kHz
Frame rate : 31.250 FPS (1536 SPF)
Compression mode : Lossy
Stream size : 210 MiB (24%)
Language : English
Service kind : Complete Main
Default : Yes
Forced : No

Text
ID : 3
Format : UTF-8
Codec ID : S_TEXT/UTF8
Codec ID/Info : UTF-8 Plain Text
Language : English
Default : Yes
Forced : No

Menu #1
00:00:00.000 : en:Opening Credits
00:00:51.000 : en:Hail and Farewell
00:03:09.000 : en:Cause for celebration
00:05:13.000 : en:Changing the rules
00:09:53.000 : en:No ordinary person
00:13:39.000 : en:Vengeance or Mercy
00:16:10.000 : en:Plotting
00:18:46.000 : en:Ivar visits his brother in the night
00:21:11.000 : en:Eyvind despairs
00:23:12.000 : en:Bjorn makes a deal
00:27:03.000 : en:The ax
00:30:10.000 : en:The Danes
00:34:38.000 : en:Aud greets her father when he returns
00:38:12.000 : en:Say it
00:44:47.000 : en:End Credits

Menu #2
00:00:00.000 : :Opening Credits
00:00:51.000 : :Hail and Farewell
00:03:09.000 : :Cause for celebration
00:05:13.000 : :Changing the rules
00:09:53.000 : :No ordinary person
00:13:39.000 : :Vengeance or Mercy
00:16:10.000 : :Plotting
00:18:46.000 : :Ivar visits his brother in the night
00:21:11.000 : :Eyvind despairs
00:23:12.000 : :Bjorn makes a deal
00:27:03.000 : :The ax
00:30:10.000 : :The Danes
00:34:38.000 : :Aud greets her father when he returns
00:38:12.000 : :Say it
00:44:47.000 : :End Credits



We have no issue with individuals posting or re-uploading our torrents on a platform we aren't on. However, if this is something you'd like to do, please do so in a 'as-is' format. We ask that you do not create a new torrent, include all descriptions you see above including the SEV logo, tags, notes and screenshots. If you'd like to become a permanent poster on a website we don't post to, feel free to get in contact with a Sublime Encoded Video member.




We are recruiting/training new members for SEV & seedbox providers as well as people to help out with subtitles.
As you already know, we deliver quality, so you know the standard.
If you're interested, feel free to contact any of the team members.

Category:TV > HEVC/x265
Lang:English  English
Total Size:857 MB
Info Hash:f6c731840c2d4f4b9d24f4d2ffcb3c761ea147af
Added By:Goki
Date Added:11-01-2019 08:35:57

Files

File List: 
 File Size
Vikings S05E17 The Most Terrible Thing 1080p Webrip x265 EAC3 2.0 Goki [SEV].mkv857 MB



Comments

There are currently no comments. Be the first one to write something !