kgf sarkar Manikarnika star trek discovery thakrey Xxx kedarnath thackeray malayalam the accidental prime minister supernatural evo aquaman telugu odiyan the flash why cheat india great british bake off s09e10 vikings tushy 18.12 1080p.mp4-ktr charlie chaplin 2 1080P Hindi mirzapur ettv mr majnu the grand tour 2018 ita Adanga Maru Tin Star etmovies dtone uri EVO malayalam 2018 movies AQUAMAN ita Bumblebee ethd ITA zero etrg venom f2 1080p 2018 maari 2 Game Of Thrones viswasam TamilRockers Kannada simmba Kannada ddr simbha tushyraw 1080p.mp4-ktr mortal engines simba petta DTOne uri the surgical strike kung fu the legend Young justice tamil robot 2.0 it brazzers it 2017 2.0 thakre Njan Prakashan glass fgt bohemian rhapsody Star Trek Discovery S02E02 
Warning! Use a VPN When Downloading Torrents!
Your IP Address is 54.226.73.255. Location is United States
Your Internet Provider is tracking your torrent activity! Hide your IP ADDRESS with a VPN!
We strongly recommend using ExpressVPN to anonymize your torrenting. 30 Day Money Back Guarantee!
Try it Now!
ETTV Recommended TV Shows
SEAL.Team.S02E19.HDTV.x264-LucidTV[ettv] torrent
Gotham.S05E12.WEB.x264-TBS[ettv] torrent
Marvels.Cloak.And.Dagger.S02E05.WEB.x264-TBS[ettv] torrent
Brooklyn.Nine-Nine.S06E14.HDTV.x264-SVA[ettv] torrent
The.Big.Bang.Theory.S12E20.HDTV.x264-SHiTSPREAD[ettv] torrent
Supernatural.S14E20.HDTV.x264-CRAVERS[ettv] torrent

ETTV Recommended SD
Happy.Death.Day.2U.2019.HDRip.XviD.AC3-EVO torrent
I.Spit.on.Your.Grave.Deja.Vu.2019.BDRip.XViD.AC3-ETRG torrent
Backdraft.2.2019.HDRip.XViD-ETRG torrent
What.Men.Want.2019.HDRip.XViD-ETRG torrent

ETTV Recommended HD
A Common Man AKA Death Watch 2012.1080p.BluRay.HEVC.DTS-HDMA.5.1-DDR torrent
Destroyer.2018.BluRay.1080p.HEVC.DTS-HD.MA.5.1-DDR torrent
I Spit On Your Grave - Deja vu 2019.Blu-ray.1080p.HEVC.DTS-HDMA.5.1-DDR torrent
Happy.Death.Day.2U.2019.1080p.WEB-DL.H264.AC3-EVO[EtHD] torrent

ETTV Recommended UHD
Star Wars Episode II Attack of the Clones (2002) x 1600 (2160p) SDR 5.1 x265 10bit Phun Psyz torrent
The Mayflower Voyagers 1988.2160p.UHD.BluRay.HDR.HEVC.DTS-HD.MA.5.1-DDR torrent
Miss Bala 2019.MULTI.2160p.HDR.UHDRip.DTS-HD.MA.5.1-DDR torrent
Solo A Star Wars Story (2018) x 1600 (2160p) HDR 5.1 x265 10bit Phun Psyz torrent

ETTV Recommended Cam
Hellboy.2019.HDCAM.v2.x264.AC3-ETRG torrent
The.Curse.of.La.Llorona.2019.HDCAM.x264.AC3-ETRG torrent
Captain.Marvel.2019.HDTC.x264 AC3-ETRG torrent
Avengers Endgame 2019 NEW HDCAM x264 AC3-ETRG torrent

ETTV Recommended Foreign
Mission.Impossible.Fallout.(2018).[IMAX.1080p].[Dual.Audio].[Org.BD].{Hindi+Eng.6Ch}.-~{DOOMSDAY}~-. torrent
Force.2011.1080p.WEB-DL.AVC.AAC.ESub.DDR torrent
OK Jaanu.2017.1080p.WEB-DL.AVC.AAC.ESub.DDR torrent
Lo.spietato.2019.1080p.NF.WEB-DL.DDP5.1.x264-NTG[EtHD] torrent


Download Torrent "Black Mirror Bandersnatch (2018) (1080p WEBRip x265 HEVC 10bit AAC 5.1 Q22 ..."

IMDB Details
Description:

In 1984, a young programmer begins to question reality as he works to adapt a fantasy novel into a video game.

Genre:

Drama, Mystery, Sci-Fi, Thriller

Download Torrent (Magnet)
Download Torrent (File)
Seeds: 66
Leechers: 74
Completed: 828 
Last Checked: 05-02-2019 17:14:30


Loading...
Details
Title:Black Mirror Bandersnatch (2018) (1080p WEBRip x265 HEVC 10bit AAC 5.1 Q22 ...
Description:
[img="https://i.postimg.cc/hjkyHjgc/pirate-shark-banner-with-forum-site-address-www-imagesplitter-n.png" alt=""][img="https://i.postimg.cc/CLHPQS2p/pirate-shark-banner-with-forum-site-address-www-imagesplitter-n.png" alt=""]
[img="https://i.postimg.cc/13vWyMPW/pirate-shark-banner-with-forum-site-address-www-imagesplitter-n.png" alt=""][img="https://i.postimg.cc/yNWLx987/pirate-shark-banner-with-forum-site-address-www-imagesplitter-n.png" alt=""]




Media Information
General
Format                                   : Matroska
Format version                           : Version 4 / Version 2
File size                                : 2.10 GiB
Duration                                 : 1 h 33 min
Overall bit rate                         : 3 225 kb/s
Movie name                               : Black Mirror Bandersnatch 2018  (1080p x265 q22 S4 Joy)[UTR]
Encoded date                             : UTC 2019-02-03 19:14:10
Writing application                      : mkvmerge v28.2.0 ('The Awakening') 64-bit
Writing library                          : libebml v1.3.6 + libmatroska v1.4.9
Writing frontend                         : StaxRip v2.0, Encoded by JoyBell

Video
ID                                       : 1
Format                                   : HEVC
Format/Info                              : High Efficiency Video Coding
Format profile                           : Main [email protected]@Main
Codec ID                                 : V_MPEGH/ISO/HEVC
Duration                                 : 1 h 33 min
Bit rate                                 : 3 023 kb/s
Width                                    : 1 920 pixels
Height                                   : 880 pixels
Display aspect ratio                     : 2.2:1
Frame rate mode                          : Constant
Frame rate                               : 25.000 FPS
Color space                              : YUV
Chroma subsampling                       : 4:2:0
Bit depth                                : 10 bits
Bits/(Pixel*Frame)                       : 0.072
Stream size                              : 1.97 GiB (94%)
Writing library                          : x265 2.9+15-81373aab81df:[Windows][MSVC 1916][64 bit] 10bit
Encoding settings                        : cpuid=1111039 / frame-threads=3 / numa-pools=12 / wpp / no-pmode / no-pme / no-psnr / ssim / log-level=2 / input-csp=1 / input-res=1920x880 / interlace=0 / total-frames=139806 / level-idc=0 / high-tier=1 / uhd-bd=0 / ref=4 / no-allow-non-conformance / no-repeat-headers / annexb / no-aud / no-hrd / info / hash=0 / no-temporal-layers / open-gop / min-keyint=25 / keyint=250 / gop-lookahead=0 / bframes=4 / b-adapt=2 / b-pyramid / bframe-bias=0 / rc-lookahead=25 / lookahead-slices=4 / scenecut=40 / radl=0 / no-splice / no-intra-refresh / ctu=64 / min-cu-size=8 / rect / no-amp / max-tu-size=32 / tu-inter-depth=1 / tu-intra-depth=1 / limit-tu=0 / rdoq-level=2 / dynamic-rd=0.00 / ssim-rd / signhide / no-tskip / nr-intra=0 / nr-inter=0 / no-constrained-intra / strong-intra-smoothing / max-merge=3 / limit-refs=3 / limit-modes / me=3 / subme=3 / merange=57 / temporal-mvp / weightp / no-weightb / no-analyze-src-pics / deblock=-2:-2 / sao / sao-non-deblock / rd=4 / early-skip / rskip / no-fast-intra / no-tskip-fast / no-cu-lossless / no-b-intra / no-splitrd-skip / rdpenalty=0 / psy-rd=0.00 / psy-rdoq=1.00 / no-rd-refine / no-lossless / cbqpoffs=0 / crqpoffs=0 / rc=crf / crf=21.5 / qcomp=0.60 / qpstep=4 / stats-write=0 / stats-read=0 / ipratio=1.40 / pbratio=1.30 / aq-mode=3 / aq-strength=1.00 / cutree / zone-count=0 / no-strict-cbr / qg-size=32 / no-rc-grain / qpmax=69 / qpmin=0 / no-const-vbv / sar=0 / overscan=0 / videoformat=5 / range=0 / colorprim=2 / transfer=2 / colormatrix=2 / chromaloc=0 / display-window=0 / max-cll=0,0 / min-luma=0 / max-luma=1023 / log2-max-poc-lsb=8 / vui-timing-info / vui-hrd-info / slices=1 / no-opt-qp-pps / no-opt-ref-list-length-pps / no-multi-pass-opt-rps / scenecut-bias=0.05 / no-opt-cu-delta-qp / no-aq-motion / no-hdr / no-hdr-opt / no-dhdr10-opt / no-idr-recovery-sei / analysis-reuse-level=5 / scale-factor=0 / refine-intra=0 / refine-inter=0 / refine-mv=0 / no-limit-sao / ctu-info=0 / no-lowpass-dct / refine-mv-type=0 / copy-pic=1 / max-ausize-factor=1.0 / no-dynamic-refine / no-single-sei
Default                                  : Yes
Forced                                   : No

Audio
ID                                       : 2
Format                                   : AAC
Format/Info                              : Advanced Audio Codec
Format profile                           : HE-AAC / LC
Codec ID                                 : A_AAC
Duration                                 : 1 h 33 min
Bit rate                                 : 197 kb/s
Channel(s)                               : 6 channels
Channel positions                        : Front: L C R, Side: L R, LFE
Sampling rate                            : 48.0 kHz / 24.0 kHz
Frame rate                               : 23.438 FPS (1024 spf)
Compression mode                         : Lossy
Delay relative to video                  : 31 ms
Stream size                              : 131 MiB (6%)
Language                                 : English
Default                                  : No
Forced                                   : No

Subtitle #1
ID                                       : 3
Format                                   : UTF-8
Codec ID                                 : S_TEXT/UTF8
Codec ID/Info                            : UTF-8 Plain Text
Duration                                 : 1 h 29 min
Bit rate                                 : 50 b/s
Count of elements                        : 938
Stream size                              : 33.1 KiB (0%)
Language                                 : English
Default                                  : No
Forced                                   : No

Subtitle #2
ID                                       : 4
Format                                   : UTF-8
Codec ID                                 : S_TEXT/UTF8
Codec ID/Info                            : UTF-8 Plain Text
Duration                                 : 1 h 31 min
Bit rate                                 : 54 b/s
Count of elements                        : 1101
Stream size                              : 36.4 KiB (0%)
Language                                 : English
Default                                  : No
Forced                                   : No

Subtitle #3
ID                                       : 5
Format                                   : UTF-8
Codec ID                                 : S_TEXT/UTF8
Codec ID/Info                            : UTF-8 Plain Text
Duration                                 : 1 h 32 min
Bit rate                                 : 86 b/s
Count of elements                        : 1104
Stream size                              : 58.4 KiB (0%)
Language                                 : Arabic
Default                                  : No
Forced                                   : No

Subtitle #4
ID                                       : 6
Format                                   : UTF-8
Codec ID                                 : S_TEXT/UTF8
Codec ID/Info                            : UTF-8 Plain Text
Duration                                 : 1 h 32 min
Bit rate                                 : 44 b/s
Count of elements                        : 1060
Stream size                              : 30.4 KiB (0%)
Language                                 : Chinese
Default                                  : No
Forced                                   : No

Subtitle #5
ID                                       : 7
Format                                   : UTF-8
Codec ID                                 : S_TEXT/UTF8
Codec ID/Info                            : UTF-8 Plain Text
Duration                                 : 1 h 32 min
Bit rate                                 : 47 b/s
Count of elements                        : 1059
Stream size                              : 32.1 KiB (0%)
Language                                 : Chinese
Default                                  : No
Forced                                   : No

Subtitle #6
ID                                       : 8
Format                                   : UTF-8
Codec ID                                 : S_TEXT/UTF8
Codec ID/Info                            : UTF-8 Plain Text
Duration                                 : 1 h 32 min
Bit rate                                 : 43 b/s
Count of elements                        : 787
Stream size                              : 29.1 KiB (0%)
Language                                 : Danish
Default                                  : No
Forced                                   : No

Subtitle #7
ID                                       : 9
Format                                   : UTF-8
Codec ID                                 : S_TEXT/UTF8
Codec ID/Info                            : UTF-8 Plain Text
Duration                                 : 1 h 32 min
Bit rate                                 : 43 b/s
Count of elements                        : 922
Stream size                              : 29.4 KiB (0%)
Language                                 : Dutch
Default                                  : No
Forced                                   : No

Subtitle #8
ID                                       : 10
Format                                   : UTF-8
Codec ID                                 : S_TEXT/UTF8
Codec ID/Info                            : UTF-8 Plain Text
Duration                                 : 1 h 32 min
Bit rate                                 : 42 b/s
Count of elements                        : 931
Stream size                              : 29.0 KiB (0%)
Language                                 : Finnish
Default                                  : No
Forced                                   : No

Subtitle #9
ID                                       : 11
Format                                   : UTF-8
Codec ID                                 : S_TEXT/UTF8
Codec ID/Info                            : UTF-8 Plain Text
Duration                                 : 1 h 31 min
Bit rate                                 : 50 b/s
Count of elements                        : 1022
Stream size                              : 34.2 KiB (0%)
Language                                 : French
Default                                  : No
Forced                                   : No

Subtitle #10
ID                                       : 12
Format                                   : UTF-8
Codec ID                                 : S_TEXT/UTF8
Codec ID/Info                            : UTF-8 Plain Text
Duration                                 : 1 h 32 min
Bit rate                                 : 48 b/s
Count of elements                        : 964
Stream size                              : 33.1 KiB (0%)
Language                                 : German
Default                                  : No
Forced                                   : No

Subtitle #11
ID                                       : 13
Format                                   : UTF-8
Codec ID                                 : S_TEXT/UTF8
Codec ID/Info                            : UTF-8 Plain Text
Duration                                 : 1 h 32 min
Bit rate                                 : 82 b/s
Count of elements                        : 1006
Stream size                              : 55.9 KiB (0%)
Language                                 : Greek
Default                                  : No
Forced                                   : No

Subtitle #12
ID                                       : 14
Format                                   : UTF-8
Codec ID                                 : S_TEXT/UTF8
Codec ID/Info                            : UTF-8 Plain Text
Duration                                 : 1 h 32 min
Bit rate                                 : 78 b/s
Count of elements                        : 1064
Stream size                              : 52.8 KiB (0%)
Language                                 : Hebrew
Default                                  : No
Forced                                   : No

Subtitle #13
ID                                       : 15
Format                                   : UTF-8
Codec ID                                 : S_TEXT/UTF8
Codec ID/Info                            : UTF-8 Plain Text
Duration                                 : 1 h 32 min
Bit rate                                 : 43 b/s
Count of elements                        : 1061
Stream size                              : 29.1 KiB (0%)
Language                                 : Indonesian
Default                                  : No
Forced                                   : No

Subtitle #14
ID                                       : 16
Format                                   : UTF-8
Codec ID                                 : S_TEXT/UTF8
Codec ID/Info                            : UTF-8 Plain Text
Duration                                 : 1 h 32 min
Bit rate                                 : 59 b/s
Count of elements                        : 1049
Stream size                              : 40.1 KiB (0%)
Language                                 : Icelandic
Default                                  : No
Forced                                   : No

Subtitle #15
ID                                       : 17
Format                                   : UTF-8
Codec ID                                 : S_TEXT/UTF8
Codec ID/Info                            : UTF-8 Plain Text
Duration                                 : 1 h 32 min
Bit rate                                 : 47 b/s
Count of elements                        : 1019
Stream size                              : 32.0 KiB (0%)
Language                                 : Italian
Default                                  : No
Forced                                   : No

Subtitle #16
ID                                       : 18
Format                                   : UTF-8
Codec ID                                 : S_TEXT/UTF8
Codec ID/Info                            : UTF-8 Plain Text
Duration                                 : 1 h 33 min
Bit rate                                 : 50 b/s
Count of elements                        : 1219
Stream size                              : 34.5 KiB (0%)
Language                                 : Japanese
Default                                  : No
Forced                                   : No

Subtitle #17
ID                                       : 19
Format                                   : UTF-8
Codec ID                                 : S_TEXT/UTF8
Codec ID/Info                            : UTF-8 Plain Text
Duration                                 : 1 h 32 min
Bit rate                                 : 55 b/s
Count of elements                        : 1105
Stream size                              : 37.2 KiB (0%)
Language                                 : Korean
Default                                  : No
Forced                                   : No

Subtitle #18
ID                                       : 20
Format                                   : UTF-8
Codec ID                                 : S_TEXT/UTF8
Codec ID/Info                            : UTF-8 Plain Text
Duration                                 : 1 h 32 min
Bit rate                                 : 45 b/s
Count of elements                        : 959
Stream size                              : 31.0 KiB (0%)
Language                                 : Norwegian Bokmal
Default                                  : No
Forced                                   : No

Subtitle #19
ID                                       : 21
Format                                   : UTF-8
Codec ID                                 : S_TEXT/UTF8
Codec ID/Info                            : UTF-8 Plain Text
Duration                                 : 1 h 32 min
Bit rate                                 : 42 b/s
Count of elements                        : 1007
Stream size                              : 28.5 KiB (0%)
Language                                 : Polish
Default                                  : No
Forced                                   : No

Subtitle #20
ID                                       : 22
Format                                   : UTF-8
Codec ID                                 : S_TEXT/UTF8
Codec ID/Info                            : UTF-8 Plain Text
Duration                                 : 1 h 32 min
Bit rate                                 : 47 b/s
Count of elements                        : 962
Stream size                              : 32.0 KiB (0%)
Language                                 : Portuguese
Default                                  : No
Forced                                   : No

Subtitle #21
ID                                       : 23
Format                                   : UTF-8
Codec ID                                 : S_TEXT/UTF8
Codec ID/Info                            : UTF-8 Plain Text
Duration                                 : 1 h 32 min
Bit rate                                 : 45 b/s
Count of elements                        : 1023
Stream size                              : 30.8 KiB (0%)
Language                                 : Portuguese
Default                                  : No
Forced                                   : No

Subtitle #22
ID                                       : 24
Format                                   : UTF-8
Codec ID                                 : S_TEXT/UTF8
Codec ID/Info                            : UTF-8 Plain Text
Duration                                 : 1 h 33 min
Bit rate                                 : 48 b/s
Count of elements                        : 1065
Stream size                              : 33.4 KiB (0%)
Language                                 : Romanian
Default                                  : No
Forced                                   : No

Subtitle #23
ID                                       : 25
Format                                   : UTF-8
Codec ID                                 : S_TEXT/UTF8
Codec ID/Info                            : UTF-8 Plain Text
Duration                                 : 1 h 32 min
Bit rate                                 : 84 b/s
Count of elements                        : 1052
Stream size                              : 56.9 KiB (0%)
Language                                 : Russian
Default                                  : No
Forced                                   : No

Subtitle #24
ID                                       : 26
Format                                   : UTF-8
Codec ID                                 : S_TEXT/UTF8
Codec ID/Info                            : UTF-8 Plain Text
Duration                                 : 1 h 32 min
Bit rate                                 : 50 b/s
Count of elements                        : 1077
Stream size                              : 34.3 KiB (0%)
Language                                 : Spanish
Default                                  : No
Forced                                   : No

Subtitle #25
ID                                       : 27
Format                                   : UTF-8
Codec ID                                 : S_TEXT/UTF8
Codec ID/Info                            : UTF-8 Plain Text
Duration                                 : 1 h 32 min
Bit rate                                 : 52 b/s
Count of elements                        : 1033
Stream size                              : 35.1 KiB (0%)
Language                                 : Spanish
Default                                  : No
Forced                                   : No

Subtitle #26
ID                                       : 28
Format                                   : UTF-8
Codec ID                                 : S_TEXT/UTF8
Codec ID/Info                            : UTF-8 Plain Text
Duration                                 : 1 h 32 min
Bit rate                                 : 49 b/s
Count of elements                        : 1003
Stream size                              : 33.2 KiB (0%)
Language                                 : Swedish
Default                                  : No
Forced                                   : No

Subtitle #27
ID                                       : 29
Format                                   : UTF-8
Codec ID                                 : S_TEXT/UTF8
Codec ID/Info                            : UTF-8 Plain Text
Duration                                 : 1 h 32 min
Bit rate                                 : 125 b/s
Count of elements                        : 1060
Stream size                              : 85.0 KiB (0%)
Language                                 : Thai
Default                                  : No
Forced                                   : No

Subtitle #28
ID                                       : 30
Format                                   : UTF-8
Codec ID                                 : S_TEXT/UTF8
Codec ID/Info                            : UTF-8 Plain Text
Duration                                 : 1 h 32 min
Bit rate                                 : 49 b/s
Count of elements                        : 1039
Stream size                              : 33.7 KiB (0%)
Language                                 : Turkish
Default                                  : No
Forced                                   : No

Subtitle #29
ID                                       : 31
Format                                   : UTF-8
Codec ID                                 : S_TEXT/UTF8
Codec ID/Info                            : UTF-8 Plain Text
Duration                                 : 1 h 31 min
Bit rate                                 : 67 b/s
Count of elements                        : 1010
Stream size                              : 45.5 KiB (0%)
Language                                 : Vietnamese
Default                                  : No
Forced                                   : No

Source Information
Release: Unknown Source/NO-GROUP

Category:Movies > HEVC/x265
Lang:English  English
Total Size:2.10 GB
Info Hash:a573b9c2c742a95264426902c20d7d2eb0c35a02
Added By:UTR
Date Added:05-02-2019 17:14:25

Files

File List: 
 File Size
Black Mirror Bandersnatch 2018 (1080p x265 q22 S84 Joy).mkv2.10 GB



Comments

There are currently no comments. Be the first one to write something !