kgf sarkar Manikarnika star trek discovery thakrey Xxx kedarnath thackeray malayalam the accidental prime minister supernatural evo aquaman telugu odiyan the flash why cheat india great british bake off s09e10 vikings tushy 18.12 1080p.mp4-ktr charlie chaplin 2 1080P Hindi mirzapur ettv mr majnu the grand tour 2018 ita Adanga Maru Tin Star etmovies dtone uri EVO malayalam 2018 movies AQUAMAN ita Bumblebee ethd ITA zero etrg venom f2 1080p 2018 maari 2 Game Of Thrones viswasam TamilRockers Kannada simmba Kannada ddr simbha tushyraw 1080p.mp4-ktr mortal engines simba petta DTOne uri the surgical strike kung fu the legend Young justice tamil robot 2.0 it brazzers it 2017 2.0 thakre Njan Prakashan glass fgt bohemian rhapsody Star Trek Discovery S02E02 
Warning! Use a VPN When Downloading Torrents!
Your IP Address is 54.226.73.255. Location is United States
Your Internet Provider is tracking your torrent activity! Hide your IP ADDRESS with a VPN!
We strongly recommend using ExpressVPN to anonymize your torrenting. 30 Day Money Back Guarantee!
Try it Now!
ETTV Recommended TV Shows
SEAL.Team.S02E19.HDTV.x264-LucidTV[ettv] torrent
Gotham.S05E12.WEB.x264-TBS[ettv] torrent
Marvels.Cloak.And.Dagger.S02E05.WEB.x264-TBS[ettv] torrent
Brooklyn.Nine-Nine.S06E14.HDTV.x264-SVA[ettv] torrent
The.Big.Bang.Theory.S12E20.HDTV.x264-SHiTSPREAD[ettv] torrent
Supernatural.S14E20.HDTV.x264-CRAVERS[ettv] torrent

ETTV Recommended SD
Happy.Death.Day.2U.2019.HDRip.XviD.AC3-EVO torrent
I.Spit.on.Your.Grave.Deja.Vu.2019.BDRip.XViD.AC3-ETRG torrent
Backdraft.2.2019.HDRip.XViD-ETRG torrent
What.Men.Want.2019.HDRip.XViD-ETRG torrent

ETTV Recommended HD
A Common Man AKA Death Watch 2012.1080p.BluRay.HEVC.DTS-HDMA.5.1-DDR torrent
Destroyer.2018.BluRay.1080p.HEVC.DTS-HD.MA.5.1-DDR torrent
I Spit On Your Grave - Deja vu 2019.Blu-ray.1080p.HEVC.DTS-HDMA.5.1-DDR torrent
Happy.Death.Day.2U.2019.1080p.WEB-DL.H264.AC3-EVO[EtHD] torrent

ETTV Recommended UHD
Star Wars Episode II Attack of the Clones (2002) x 1600 (2160p) SDR 5.1 x265 10bit Phun Psyz torrent
The Mayflower Voyagers 1988.2160p.UHD.BluRay.HDR.HEVC.DTS-HD.MA.5.1-DDR torrent
Miss Bala 2019.MULTI.2160p.HDR.UHDRip.DTS-HD.MA.5.1-DDR torrent
Solo A Star Wars Story (2018) x 1600 (2160p) HDR 5.1 x265 10bit Phun Psyz torrent

ETTV Recommended Cam
Hellboy.2019.HDCAM.v2.x264.AC3-ETRG torrent
The.Curse.of.La.Llorona.2019.HDCAM.x264.AC3-ETRG torrent
Captain.Marvel.2019.HDTC.x264 AC3-ETRG torrent
Avengers Endgame 2019 NEW HDCAM x264 AC3-ETRG torrent

ETTV Recommended Foreign
Mission.Impossible.Fallout.(2018).[IMAX.1080p].[Dual.Audio].[Org.BD].{Hindi+Eng.6Ch}.-~{DOOMSDAY}~-. torrent
Force.2011.1080p.WEB-DL.AVC.AAC.ESub.DDR torrent
OK Jaanu.2017.1080p.WEB-DL.AVC.AAC.ESub.DDR torrent
Lo.spietato.2019.1080p.NF.WEB-DL.DDP5.1.x264-NTG[EtHD] torrent


Download Torrent "Men & Chicken (2015) (1080p BluRay 10bit x265 HEVC AAC 5.1 Qman) [UTR]"

IMDB Details
Description:

Two outcast brothers, through getting to know their unknown family, discover a horrible truth about themselves and their relatives.

Genre:

Comedy, Drama, Mystery, Sci-Fi

Download Torrent (Magnet)
Download Torrent (File)
Seeds: 88
Leechers: 54
Completed: 2,605 
Last Checked: 06-02-2019 14:25:09


Loading...
Details
Title:Men & Chicken (2015) (1080p BluRay 10bit x265 HEVC AAC 5.1 Qman) [UTR]
Description:
[img="https://i.postimg.cc/hjkyHjgc/pirate-shark-banner-with-forum-site-address-www-imagesplitter-n.png" alt=""][img="https://i.postimg.cc/CLHPQS2p/pirate-shark-banner-with-forum-site-address-www-imagesplitter-n.png" alt=""]
[img="https://i.postimg.cc/13vWyMPW/pirate-shark-banner-with-forum-site-address-www-imagesplitter-n.png" alt=""][img="https://i.postimg.cc/yNWLx987/pirate-shark-banner-with-forum-site-address-www-imagesplitter-n.png" alt=""]


Media Information
General
Format                                   : Matroska
Format version                           : Version 4 / Version 2
File size                                : 1.20 GiB
Duration                                 : 1 h 43 min
Overall bit rate                         : 1 653 kb/s
Encoded date                             : UTC 2019-02-05 17:03:53
Writing application                      : mkvmerge v30.1.0 ('Forever And More') 64-bit
Writing library                          : libebml v1.3.6 + libmatroska v1.4.9

Video
ID                                       : 1
Format                                   : HEVC
Format/Info                              : High Efficiency Video Coding
Format profile                           : Main [email protected]@Main
Codec ID                                 : V_MPEGH/ISO/HEVC
Duration                                 : 1 h 43 min
Bit rate                                 : 1 307 kb/s
Width                                    : 1 920 pixels
Height                                   : 804 pixels
Display aspect ratio                     : 2.40:1
Frame rate mode                          : Constant
Frame rate                               : 24.000 FPS
Color space                              : YUV
Chroma subsampling                       : 4:2:0
Bit depth                                : 10 bits
Bits/(Pixel*Frame)                       : 0.035
Stream size                              : 968 MiB (79%)
Writing library                          : x265 3.0_RC+10-672ce0547e97:[Windows][GCC 8.2.1][64 bit] 10bit
Encoding settings                        : cpuid=1111039 / frame-threads=2 / numa-pools=4 / wpp / no-pmode / no-pme / no-psnr / no-ssim / log-level=2 / input-csp=1 / input-res=1920x804 / interlace=0 / total-frames=149182 / level-idc=0 / high-tier=1 / uhd-bd=0 / ref=4 / no-allow-non-conformance / no-repeat-headers / annexb / no-aud / no-hrd / info / hash=0 / no-temporal-layers / open-gop / min-keyint=24 / keyint=250 / gop-lookahead=0 / bframes=8 / b-adapt=2 / b-pyramid / bframe-bias=0 / rc-lookahead=50 / lookahead-slices=4 / scenecut=40 / radl=0 / no-splice / no-intra-refresh / ctu=64 / min-cu-size=8 / no-rect / no-amp / max-tu-size=32 / tu-inter-depth=1 / tu-intra-depth=1 / limit-tu=0 / rdoq-level=2 / dynamic-rd=0.00 / no-ssim-rd / signhide / no-tskip / nr-intra=0 / nr-inter=0 / no-constrained-intra / no-strong-intra-smoothing / max-merge=3 / limit-refs=3 / limit-modes / me=3 / subme=3 / merange=57 / temporal-mvp / weightp / no-weightb / no-analyze-src-pics / deblock=-1:-1 / no-sao / no-sao-non-deblock / rd=4 / no-early-skip / no-rskip / no-fast-intra / no-tskip-fast / no-cu-lossless / b-intra / no-splitrd-skip / rdpenalty=0 / psy-rd=1.00 / psy-rdoq=2.50 / no-rd-refine / no-lossless / cbqpoffs=0 / crqpoffs=0 / rc=crf / crf=21.0 / qcomp=0.60 / qpstep=4 / stats-write=0 / stats-read=0 / ipratio=1.40 / pbratio=1.30 / aq-mode=3 / aq-strength=0.40 / cutree / zone-count=0 / no-strict-cbr / qg-size=32 / no-rc-grain / qpmax=69 / qpmin=0 / no-const-vbv / sar=0 / overscan=0 / videoformat=5 / range=0 / colorprim=2 / transfer=2 / colormatrix=2 / chromaloc=0 / display-window=0 / max-cll=0,0 / min-luma=0 / max-luma=1023 / log2-max-poc-lsb=8 / vui-timing-info / vui-hrd-info / slices=1 / no-opt-qp-pps / no-opt-ref-list-length-pps / no-multi-pass-opt-rps / scenecut-bias=0.05 / no-opt-cu-delta-qp / no-aq-motion / no-hdr / no-hdr-opt / no-dhdr10-opt / no-idr-recovery-sei / analysis-reuse-level=5 / scale-factor=0 / refine-intra=0 / refine-inter=0 / refine-mv=0 / refine-ctu-distortion=0 / no-limit-sao / ctu-info=0 / no-lowpass-dct / refine-analysis-type=0 / copy-pic=1 / max-ausize-factor=1.0 / no-dynamic-refine / no-single-sei / no-hevc-aq / qp-adaptation-range=1.00
Language                                 : Danish
Default                                  : Yes
Forced                                   : No

Audio
ID                                       : 2
Format                                   : AAC
Format/Info                              : Advanced Audio Codec
Format profile                           : LC
Codec ID                                 : A_AAC
Duration                                 : 1 h 43 min
Bit rate                                 : 321 kb/s
Channel(s)                               : 6 channels
Channel positions                        : Front: L C R, Side: L R, LFE
Sampling rate                            : 48.0 kHz
Frame rate                               : 46.875 FPS (1024 spf)
Compression mode                         : Lossy
Delay relative to video                  : 9 ms
Stream size                              : 238 MiB (19%)
Language                                 : Danish
Default                                  : Yes
Forced                                   : No

Subtitle
ID                                       : 3
Format                                   : PGS
Muxing mode                              : zlib
Codec ID                                 : S_HDMV/PGS
Codec ID/Info                            : Picture based subtitle format used on BDs/HD-DVDs
Duration                                 : 1 h 37 min
Bit rate                                 : 36.8 kb/s
Count of elements                        : 1806
Stream size                              : 25.7 MiB (2%)
Language                                 : Danish
Default                                  : Yes
Forced                                   : No

Menu
00:00:00.000                             : en:00:00:00.000
00:10:12.583                             : en:00:10:12.583
00:18:15.500                             : en:00:18:15.500
00:26:06.375                             : en:00:26:06.375
00:32:33.333                             : en:00:32:33.333
00:44:02.458                             : en:00:44:02.458
00:56:24.375                             : en:00:56:24.375
01:03:57.208                             : en:01:03:57.208
01:13:10.625                             : en:01:13:10.625
01:21:39.083                             : en:01:21:39.083
01:29:17.750                             : en:01:29:17.750
01:38:07.958                             : en:01:38:07.958

Source Information
Release: Unknown Source/NO-GROUP


Category:Movies > HEVC/x265
Lang:Dutch  Dutch
Total Size:1.20 GB
Info Hash:9a6458dc88671c35688f60b428f0ef45963aa197
Added By:UTR
Date Added:06-02-2019 14:25:04

Files

File List: 
 File Size
Men.&.Chicken.(2015).1080p.BluRay.10-bit.x265.AAC.5.1 Qman[UTR].mkv1.20 GB



Comments

There are currently no comments. Be the first one to write something !