kgf sarkar Manikarnika star trek discovery thakrey Xxx kedarnath thackeray malayalam the accidental prime minister supernatural evo aquaman telugu odiyan the flash why cheat india great british bake off s09e10 vikings tushy 18.12 1080p.mp4-ktr charlie chaplin 2 1080P Hindi mirzapur ettv mr majnu the grand tour 2018 ita Adanga Maru Tin Star etmovies dtone uri EVO malayalam 2018 movies AQUAMAN ita Bumblebee ethd ITA zero etrg venom f2 1080p 2018 maari 2 Game Of Thrones viswasam TamilRockers Kannada simmba Kannada ddr simbha tushyraw 1080p.mp4-ktr mortal engines simba petta DTOne uri the surgical strike kung fu the legend Young justice tamil robot 2.0 it brazzers it 2017 2.0 thakre Njan Prakashan glass fgt bohemian rhapsody Star Trek Discovery S02E02 
Warning! Use a VPN When Downloading Torrents!
Your IP Address is 54.82.119.116. Location is United States
Your Internet Provider is tracking your torrent activity! Hide your IP ADDRESS with a VPN!
We strongly recommend using ExpressVPN to anonymize your torrenting. 30 Day Money Back Guarantee!
Try it Now!
ETTV Recommended TV Shows
Star.Trek.Discovery.S02E14.WEBRip.x264-TBS[ettv] torrent
Gotham.S05E11.WEB.x264-TBS[ettv] torrent
Marvels.Cloak.And.Dagger.S02E04.WEB.x264-TBS[ettv] torrent
The.Orville.S02E13.WEB.x264-TBS[ettv] torrent
Bosch.S05.WEBRip.x264-SHiTSPREAD[ettv] torrent
Supernatural.S14E19.WEB.h264-TBS[ettv] torrent

ETTV Recommended SD
Miss.Bala.2019.HDRip.XViD-ETRG torrent
Avengers.Infinity.War.2018..NF.WebDL.AVC.DD.5.1-ETRG torrent
High.Life.2018.BRRip.XViD-ETRG torrent
Split .2017.NF.WebDL.AVC.DD.5.1-ETRG torrent

ETTV Recommended HD
Runnin from My Roots 2018.Blu-ray.1080p.HEVC.DTS-HDMA.5.1-DDR torrent
Scream for Me Sarajevo 2017.1080p.Blu-ray.HEVC.PCM.2.0-.DDR torrent
Bridget Jones Baby 2016.Multi.1080p.Bluray.HEVC.DTS-HDMA.5.1.[En+Hi]-DDR torrent
Close.2019.1080p.NF.WebDL.AVC.DD.5.1-ETRG torrent

ETTV Recommended UHD
Escape Room 2019.MULTI.2160p.HDR.UHDRip.HEVC.DTS-HD.MA.5.1-DDR torrent
Captain America The Winter Soldier 2014.Multi.UHD.BluRay.2160p.HDR.HEVC.Atmos.7.1-DDR torrent
Captain America Civil War 2016.Multi.UHD.BluRay.2160p.HDR.HEVC.Atmos.7.1-DDR torrent
The.Karate.Kid.1984.Multi.UHD.Blu-ray.2160p.HDR.HEVC.Atmos.7.1-DDR torrent

ETTV Recommended Cam
After 2019 720p HDCAM-1XBET torrent
Missing Link.2019.HDCAM.x264.AC3-ETRG torrent
Mia and the White Lion 2019 720p HDCAM-1XBET torrent
Hellboy.2019.HDCAM.v2.x264.AC3-ETRG torrent

ETTV Recommended Foreign
Rustom.2016.UHD.2160p.SDR.HEVC.Atmos.7.1-DDR torrent
Hostel.2011.Hindi.576p.AMZN.WeB.DL.H264.DDP.2.0.DusIcTv torrent
Kalank.(2019).1-3.pDVD.Rip.x264.AC3-DusIcTv torrent
Helicopter Eela.2018.1080p.WEB-DL.AVC.AACESub.DDR torrent


Download Torrent "Knight.and.Day.2010.EXTENDED.720p.BrRip.x265.HEVCBay"

IMDB Details
Description:

A young woman gets mixed up with a disgraced spy who is trying to clear his name.

Genre:

Action, Adventure, Comedy

Download Torrent (Magnet)
Download Torrent (File)
Seeds: 73
Leechers: 0
Completed: 312 
Last Checked: 12-02-2019 14:04:10


Loading...
Details
Title:Knight.and.Day.2010.EXTENDED.720p.BrRip.x265.HEVCBay
Description:
hevcbay.com

General
Unique ID                                : 260875753117233006374318844532594751254 (0xC442D7AC118137963A94661554BAB716)
Complete name                            : Knight.and.Day.2010.EXTENDED.720p.BrRip.x265.HEVCBay.com.mkv
Format                                   : Matroska
Format version                           : Version 4
File size                                : 525 MiB
Duration                                 : 1 h 57 min
Overall bit rate                         : 627 kb/s
Movie name                               : Knight.and.Day.2010.EXTENDED.720p.BrRip.x265.HEVCBay.com.mkv
Encoded date                             : UTC 2019-02-12 01:37:07
Writing application                      : hevcbay
Writing library                          : hevcbay.com / Lavf58.22.100
Comment                                  : Encoded by hevcbay.com
ENCODED-BY                               : hevcbay.com

Video
ID                                       : 1
Format                                   : HEVC
Format/Info                              : High Efficiency Video Coding
Format profile                           : [email protected]@Main
Codec ID                                 : V_MPEGH/ISO/HEVC
Duration                                 : 1 h 57 min
Bit rate                                 : 570 kb/s
Width                                    : 1 280 pixels
Height                                   : 534 pixels
Display aspect ratio                     : 2.40:1
Original display aspect ratio            : 2.40:1
Frame rate mode                          : Constant
Frame rate                               : 23.976 (24000/1001) FPS
Color space                              : YUV
Chroma subsampling                       : 4:2:0
Bit depth                                : 8 bits
Bits/(Pixel*Frame)                       : 0.035
Stream size                              : 478 MiB (91%)
Writing library                          : Lavc58.42.102 libx265
Language                                 : English
Default                                  : No
Forced                                   : No
Color range                              : Limited

Audio
ID                                       : 2
Format                                   : AAC LC SBR PS
Format/Info                              : Advanced Audio Codec Low Complexity with Spectral Band Replication and Parametric Stereo
Commercial name                          : HE-AACv2
Format settings                          : NBC
Codec ID                                 : A_AAC-29
Duration                                 : 1 h 57 min
Bit rate                                 : 53.9 kb/s
Channel(s)                               : 2 channels
Channel layout                           : C
Sampling rate                            : 48.0 kHz
Frame rate                               : 23.438 FPS (2048 SPF)
Compression mode                         : Lossy
Delay relative to video                  : -148 ms
Stream size                              : 45.2 MiB (9%)
Writing library                          : Lavc58.42.102 libfdk_aac
Language                                 : English
Default                                  : Yes
Forced                                   : No

Text
ID                                       : 3
Format                                   : UTF-8
Codec ID                                 : S_TEXT/UTF8
Codec ID/Info                            : UTF-8 Plain Text
Duration                                 : 1 h 56 min
Bit rate                                 : 59 b/s
Count of elements                        : 1622
Stream size                              : 50.3 KiB (0%)
Language                                 : English
Default                                  : Yes
Forced                                   : No





Category:Movies > HEVC/x265
Lang:English  English
Total Size:525 MB
Info Hash:7a61fc9fb753393d86517c3d914397989ba2702c
Added By:g3m696
Date Added:12-02-2019 14:04:01

Files

File List: 
 File Size
Knight.and.Day.2010.EXTENDED.720p.BrRip.x265.HEVCBay.com.mkv525 MB



Comments

There are currently no comments. Be the first one to write something !