kgf sarkar Manikarnika star trek discovery thakrey Xxx kedarnath thackeray malayalam the accidental prime minister supernatural evo aquaman telugu odiyan the flash why cheat india great british bake off s09e10 vikings tushy 18.12 1080p.mp4-ktr charlie chaplin 2 1080P Hindi mirzapur ettv mr majnu the grand tour 2018 ita Adanga Maru Tin Star etmovies dtone uri EVO malayalam 2018 movies AQUAMAN ita Bumblebee ethd ITA zero etrg venom f2 1080p 2018 maari 2 Game Of Thrones viswasam TamilRockers Kannada simmba Kannada ddr simbha tushyraw 1080p.mp4-ktr mortal engines simba petta DTOne uri the surgical strike kung fu the legend Young justice tamil robot 2.0 it brazzers it 2017 2.0 thakre Njan Prakashan glass fgt bohemian rhapsody Star Trek Discovery S02E02 
Warning! Use a VPN When Downloading Torrents!
Your IP Address is 54.82.119.116. Location is United States
Your Internet Provider is tracking your torrent activity! Hide your IP ADDRESS with a VPN!
We strongly recommend using ExpressVPN to anonymize your torrenting. 30 Day Money Back Guarantee!
Try it Now!
ETTV Recommended TV Shows
Star.Trek.Discovery.S02E14.WEBRip.x264-TBS[ettv] torrent
Gotham.S05E11.WEB.x264-TBS[ettv] torrent
Marvels.Cloak.And.Dagger.S02E04.WEB.x264-TBS[ettv] torrent
The.Orville.S02E13.WEB.x264-TBS[ettv] torrent
Bosch.S05.WEBRip.x264-SHiTSPREAD[ettv] torrent
Supernatural.S14E19.WEB.h264-TBS[ettv] torrent

ETTV Recommended SD
Miss.Bala.2019.HDRip.XViD-ETRG torrent
Avengers.Infinity.War.2018..NF.WebDL.AVC.DD.5.1-ETRG torrent
High.Life.2018.BRRip.XViD-ETRG torrent
Split .2017.NF.WebDL.AVC.DD.5.1-ETRG torrent

ETTV Recommended HD
Runnin from My Roots 2018.Blu-ray.1080p.HEVC.DTS-HDMA.5.1-DDR torrent
Scream for Me Sarajevo 2017.1080p.Blu-ray.HEVC.PCM.2.0-.DDR torrent
Bridget Jones Baby 2016.Multi.1080p.Bluray.HEVC.DTS-HDMA.5.1.[En+Hi]-DDR torrent
Close.2019.1080p.NF.WebDL.AVC.DD.5.1-ETRG torrent

ETTV Recommended UHD
Escape Room 2019.MULTI.2160p.HDR.UHDRip.HEVC.DTS-HD.MA.5.1-DDR torrent
Captain America The Winter Soldier 2014.Multi.UHD.BluRay.2160p.HDR.HEVC.Atmos.7.1-DDR torrent
Captain America Civil War 2016.Multi.UHD.BluRay.2160p.HDR.HEVC.Atmos.7.1-DDR torrent
The.Karate.Kid.1984.Multi.UHD.Blu-ray.2160p.HDR.HEVC.Atmos.7.1-DDR torrent

ETTV Recommended Cam
After 2019 720p HDCAM-1XBET torrent
Missing Link.2019.HDCAM.x264.AC3-ETRG torrent
Mia and the White Lion 2019 720p HDCAM-1XBET torrent
Hellboy.2019.HDCAM.v2.x264.AC3-ETRG torrent

ETTV Recommended Foreign
Rustom.2016.UHD.2160p.SDR.HEVC.Atmos.7.1-DDR torrent
Hostel.2011.Hindi.576p.AMZN.WeB.DL.H264.DDP.2.0.DusIcTv torrent
Kalank.(2019).1-3.pDVD.Rip.x264.AC3-DusIcTv torrent
Helicopter Eela.2018.1080p.WEB-DL.AVC.AACESub.DDR torrent


Download Torrent "The.Favourite.2018.720p.WEB-DL.x265.HEVCBay"

IMDB Details
Description:

In early 18th century England, a frail Queen Anne occupies the throne and her close friend, Lady Sarah, governs the country in her stead. When a new servant, Abigail, arrives, her charm endears her to Sarah.

Genre:

Biography, Comedy, Drama, History

Download Torrent (Magnet)
Download Torrent (File)
Seeds: 172
Leechers: 102
Completed: 1,278 
Last Checked: 12-02-2019 14:27:19


Loading...
Details
Title:The.Favourite.2018.720p.WEB-DL.x265.HEVCBay
Description:
hevcbay.com

General
Unique ID                                : 259698591689918218852919124556536915767 (0xC360212200892CC1AEC0D19C43C8A737)
Complete name                            : The.Favourite.2018.720p.WEB-DL.x265.HEVCBay.com.mkv
Format                                   : Matroska
Format version                           : Version 4
File size                                : 422 MiB
Duration                                 : 1 h 59 min
Overall bit rate                         : 494 kb/s
Movie name                               : The.Favourite.2018.720p.WEB-DL.x265.HEVCBay.com.mkv
Encoded date                             : UTC 2019-02-12 14:15:27
Writing application                      : hevcbay
Writing library                          : hevcbay.com / Lavf58.22.100
Comment                                  : Encoded by hevcbay.com
ENCODED-BY                               : hevcbay.com

Video
ID                                       : 1
Format                                   : HEVC
Format/Info                              : High Efficiency Video Coding
Format profile                           : [email protected]@Main
Codec ID                                 : V_MPEGH/ISO/HEVC
Duration                                 : 1 h 59 min
Bit rate                                 : 438 kb/s
Width                                    : 1 280 pixels
Height                                   : 692 pixels
Display aspect ratio                     : 1.85:1
Frame rate mode                          : Constant
Frame rate                               : 23.976 (24000/1001) FPS
Color space                              : YUV
Chroma subsampling                       : 4:2:0
Bit depth                                : 8 bits
Bits/(Pixel*Frame)                       : 0.021
Stream size                              : 374 MiB (89%)
Writing library                          : Lavc58.42.102 libx265
Language                                 : English
Default                                  : Yes
Forced                                   : No
Color range                              : Limited

Audio
ID                                       : 2
Format                                   : AAC LC SBR PS
Format/Info                              : Advanced Audio Codec Low Complexity with Spectral Band Replication and Parametric Stereo
Commercial name                          : HE-AACv2
Format settings                          : NBC
Codec ID                                 : A_AAC-29
Duration                                 : 1 h 59 min
Bit rate                                 : 54.1 kb/s
Channel(s)                               : 2 channels
Channel layout                           : C
Sampling rate                            : 48.0 kHz
Frame rate                               : 23.438 FPS (2048 SPF)
Compression mode                         : Lossy
Delay relative to video                  : -190 ms
Stream size                              : 46.3 MiB (11%)
Writing library                          : Lavc58.42.102 libfdk_aac
Language                                 : English
Default                                  : Yes
Forced                                   : No





Category:Movies > HEVC/x265
Lang:English  English
Total Size:422 MB
Info Hash:85422bc054de4a416d9900cc2c5eac453f33c10b
Added By:g3m696
Date Added:12-02-2019 14:27:10

Files

File List: 
 File Size
The.Favourite.2018.720p.WEB-DL.x265.HEVCBay.com.mkv422 MB



Comments

There are currently no comments. Be the first one to write something !