kgf sarkar Manikarnika star trek discovery thakrey Xxx kedarnath thackeray malayalam the accidental prime minister supernatural evo aquaman telugu odiyan the flash why cheat india great british bake off s09e10 vikings tushy 18.12 1080p.mp4-ktr charlie chaplin 2 1080P Hindi mirzapur ettv mr majnu the grand tour 2018 ita Adanga Maru Tin Star etmovies dtone uri EVO malayalam 2018 movies AQUAMAN ita Bumblebee ethd ITA zero etrg venom f2 1080p 2018 maari 2 Game Of Thrones viswasam TamilRockers Kannada simmba Kannada ddr simbha tushyraw 1080p.mp4-ktr mortal engines simba petta DTOne uri the surgical strike kung fu the legend Young justice tamil robot 2.0 it brazzers it 2017 2.0 thakre Njan Prakashan glass fgt bohemian rhapsody Star Trek Discovery S02E02 
Warning! Use a VPN When Downloading Torrents!
Your IP Address is 54.82.119.116. Location is United States
Your Internet Provider is tracking your torrent activity! Hide your IP ADDRESS with a VPN!
We strongly recommend using ExpressVPN to anonymize your torrenting. 30 Day Money Back Guarantee!
Try it Now!
ETTV Recommended TV Shows
Star.Trek.Discovery.S02E14.WEBRip.x264-TBS[ettv] torrent
Gotham.S05E11.WEB.x264-TBS[ettv] torrent
Marvels.Cloak.And.Dagger.S02E04.WEB.x264-TBS[ettv] torrent
The.Orville.S02E13.WEB.x264-TBS[ettv] torrent
Bosch.S05.WEBRip.x264-SHiTSPREAD[ettv] torrent
Supernatural.S14E19.WEB.h264-TBS[ettv] torrent

ETTV Recommended SD
Miss.Bala.2019.HDRip.XViD-ETRG torrent
Avengers.Infinity.War.2018..NF.WebDL.AVC.DD.5.1-ETRG torrent
High.Life.2018.BRRip.XViD-ETRG torrent
Split .2017.NF.WebDL.AVC.DD.5.1-ETRG torrent

ETTV Recommended HD
Runnin from My Roots 2018.Blu-ray.1080p.HEVC.DTS-HDMA.5.1-DDR torrent
Scream for Me Sarajevo 2017.1080p.Blu-ray.HEVC.PCM.2.0-.DDR torrent
Bridget Jones Baby 2016.Multi.1080p.Bluray.HEVC.DTS-HDMA.5.1.[En+Hi]-DDR torrent
Close.2019.1080p.NF.WebDL.AVC.DD.5.1-ETRG torrent

ETTV Recommended UHD
Escape Room 2019.MULTI.2160p.HDR.UHDRip.HEVC.DTS-HD.MA.5.1-DDR torrent
Captain America The Winter Soldier 2014.Multi.UHD.BluRay.2160p.HDR.HEVC.Atmos.7.1-DDR torrent
Captain America Civil War 2016.Multi.UHD.BluRay.2160p.HDR.HEVC.Atmos.7.1-DDR torrent
The.Karate.Kid.1984.Multi.UHD.Blu-ray.2160p.HDR.HEVC.Atmos.7.1-DDR torrent

ETTV Recommended Cam
After 2019 720p HDCAM-1XBET torrent
Missing Link.2019.HDCAM.x264.AC3-ETRG torrent
Mia and the White Lion 2019 720p HDCAM-1XBET torrent
Hellboy.2019.HDCAM.v2.x264.AC3-ETRG torrent

ETTV Recommended Foreign
Rustom.2016.UHD.2160p.SDR.HEVC.Atmos.7.1-DDR torrent
Hostel.2011.Hindi.576p.AMZN.WeB.DL.H264.DDP.2.0.DusIcTv torrent
Kalank.(2019).1-3.pDVD.Rip.x264.AC3-DusIcTv torrent
Helicopter Eela.2018.1080p.WEB-DL.AVC.AACESub.DDR torrent


Download Torrent "The Equalizer 2 2018 BluRay 1080p 10bit x26 HEVC FRANK mkv"

IMDB Details
Description:

Robert McCall serves an unflinching justice for the exploited and oppressed, but how far will he go when that is someone he loves?

Genre:

Action, Crime, Thriller

Download Torrent (Magnet)
Download Torrent (File)
Seeds: 160
Leechers: 58
Completed: 965 
Last Checked: 12-02-2019 17:23:51


Details
Title:The Equalizer 2 2018 BluRay 1080p 10bit x26 HEVC FRANK mkv
Description:

[table][tr][td]This image has been resized. Click this bar to view the full image.[/td]
[/tr]
[/table]


[table][tr][td][/td]
[td]This image has been resized. Click this bar to view the full image.[/td]
[/tr]
[/table]





General
Complete name                            : Downloads\The.Equalizer.2.2018.BluRay.1080p.10bit.x26 HEVC FRANK
Format                                  : Matroska
Format version                          : Version 4 / Version 2
File size                                : 848 MiB
Duration                                : 2 h 0 min
Overall bit rate                        : 980 kb/s
Source                            : The.Equalizer.2.2018.BluRay.1080p.x264.DTS-HD.MA.7.1-HDChina thanks

Video
ID                                      : 1
Format                                  : HEVC
Format/Info                              : High Efficiency Video Coding
Format profile                          : Main [email protected]@High
Codec ID                                : V_MPEGH/ISO/HEVC
Duration                                : 2 h 0 min
Bit rate                                : 706 kb/s
Width                                    : 1 920 pixels
Height                                  : 800 pixels
Display aspect ratio                    : 2.40:1
Frame rate mode                          : Constant
Frame rate                              : 23.976 (24000/1001) FPS
Color space                              : YUV
Chroma subsampling                      : 4:2:0 (Type 2)
Bit depth                                : 10 bits
Bits/(Pixel*Frame)                      : 0.019
Stream size                              : 611 MiB (72%)


Audio
ID                                      : 2
Format                                  : Opus
Codec ID                                : A_OPUS
Duration                                : 2 h 0 min
Bit rate                                : 269 kb/s
Channel(s)                              : 8 channels
Channel positions                        : Front: L C R, Side: L R, Rear: L R, LFE
Sampling rate                            : 48.0 kHz
Frame rate                              : 50.000 FPS (960 SPF)
Compression mode                        : Lossy
Stream size                              : 233 MiB (27%)
Language                                : English
Default                                  : Yes
Forced                                  : No

Text
ID                                      : 3
Format                                  : UTF-8
Codec ID                                : S_TEXT/UTF8
Codec ID/Info                            : UTF-8 Plain Text
Duration                                : 1 h 56 min
Bit rate                                : 52 b/s
Count of elements                        : 1119
Stream size                              : 44.7 KiB (0%)
Language                                : Arabic
Default                                  : No
Forced                                  : No
Category:Movies > HEVC/x265
Lang:English  English
Total Size:848 MB
Info Hash:ade411642fbd503ff491710b7dcdf49933061185
Added By:hevcfrank
Date Added:12-02-2019 17:23:48

  

Files

File List: 
 File Size
The.Equalizer.2.2018.BluRay.1080p.10bit.x26 HEVC FRANK.mkv848 MB



Comments

There are currently no comments. Be the first one to write something !