kgf sarkar Manikarnika star trek discovery thakrey Xxx kedarnath thackeray malayalam the accidental prime minister supernatural evo aquaman telugu odiyan the flash why cheat india great british bake off s09e10 vikings tushy 18.12 1080p.mp4-ktr charlie chaplin 2 1080P Hindi mirzapur ettv mr majnu the grand tour 2018 ita Adanga Maru Tin Star etmovies dtone uri EVO malayalam 2018 movies AQUAMAN ita Bumblebee ethd ITA zero etrg venom f2 1080p 2018 maari 2 Game Of Thrones viswasam TamilRockers Kannada simmba Kannada ddr simbha tushyraw 1080p.mp4-ktr mortal engines simba petta DTOne uri the surgical strike kung fu the legend Young justice tamil robot 2.0 it brazzers it 2017 2.0 thakre Njan Prakashan glass fgt bohemian rhapsody Star Trek Discovery S02E02 
Warning! Use a VPN When Downloading Torrents!
Your IP Address is 54.82.119.116. Location is United States
Your Internet Provider is tracking your torrent activity! Hide your IP ADDRESS with a VPN!
We strongly recommend using ExpressVPN to anonymize your torrenting. 30 Day Money Back Guarantee!
Try it Now!
ETTV Recommended TV Shows
Star.Trek.Discovery.S02E14.WEBRip.x264-TBS[ettv] torrent
Gotham.S05E11.WEB.x264-TBS[ettv] torrent
Marvels.Cloak.And.Dagger.S02E04.WEB.x264-TBS[ettv] torrent
The.Orville.S02E13.WEB.x264-TBS[ettv] torrent
Bosch.S05.WEBRip.x264-SHiTSPREAD[ettv] torrent
Supernatural.S14E19.WEB.h264-TBS[ettv] torrent

ETTV Recommended SD
Miss.Bala.2019.HDRip.XViD-ETRG torrent
Avengers.Infinity.War.2018..NF.WebDL.AVC.DD.5.1-ETRG torrent
High.Life.2018.BRRip.XViD-ETRG torrent
Split .2017.NF.WebDL.AVC.DD.5.1-ETRG torrent

ETTV Recommended HD
Runnin from My Roots 2018.Blu-ray.1080p.HEVC.DTS-HDMA.5.1-DDR torrent
Scream for Me Sarajevo 2017.1080p.Blu-ray.HEVC.PCM.2.0-.DDR torrent
Bridget Jones Baby 2016.Multi.1080p.Bluray.HEVC.DTS-HDMA.5.1.[En+Hi]-DDR torrent
Close.2019.1080p.NF.WebDL.AVC.DD.5.1-ETRG torrent

ETTV Recommended UHD
Escape Room 2019.MULTI.2160p.HDR.UHDRip.HEVC.DTS-HD.MA.5.1-DDR torrent
Captain America The Winter Soldier 2014.Multi.UHD.BluRay.2160p.HDR.HEVC.Atmos.7.1-DDR torrent
Captain America Civil War 2016.Multi.UHD.BluRay.2160p.HDR.HEVC.Atmos.7.1-DDR torrent
The.Karate.Kid.1984.Multi.UHD.Blu-ray.2160p.HDR.HEVC.Atmos.7.1-DDR torrent

ETTV Recommended Cam
After 2019 720p HDCAM-1XBET torrent
Missing Link.2019.HDCAM.x264.AC3-ETRG torrent
Mia and the White Lion 2019 720p HDCAM-1XBET torrent
Hellboy.2019.HDCAM.v2.x264.AC3-ETRG torrent

ETTV Recommended Foreign
Rustom.2016.UHD.2160p.SDR.HEVC.Atmos.7.1-DDR torrent
Hostel.2011.Hindi.576p.AMZN.WeB.DL.H264.DDP.2.0.DusIcTv torrent
Kalank.(2019).1-3.pDVD.Rip.x264.AC3-DusIcTv torrent
Helicopter Eela.2018.1080p.WEB-DL.AVC.AACESub.DDR torrent


Download Torrent "The Happytime Murders 2018 1080p BluRay 10bit 5 1 hevc frank mkv"

IMDB Details
Description:

When the puppet cast of a '90s children's TV show begin to get murdered one by one, a disgraced LAPD detective-turned-private eye puppet takes on the case.

Genre:

Action, Comedy, Crime, Mystery, Thriller

Download Torrent (Magnet)
Download Torrent (File)
Seeds: 90
Leechers: 0
Completed: 296 
Last Checked: 12-02-2019 17:26:39


Details
Title:The Happytime Murders 2018 1080p BluRay 10bit 5 1 hevc frank mkv
Description:
[table][tr][td]This image has been resized. Click this bar to view the full image.[/td]
[/tr]
[/table]

[table][tr][td][/td]
[td]This image has been resized. Click this bar to view the full image.[/td]
[/tr]
[/table]
         

 General    Complete name                            : /downloads/The.Happytime.Murders.2018.1080p.BluRay.10bit.5.1 hevc frank.mkv   Format                                   : Matroska   Format version                           : Version 4 / Version 2   File size                                : 667 MiB   Duration                                 : 1 h 30 min   Overall bit rate                         : 1 027 kb/s   screen                      : The.Happytime.Murders.2018.1080p.BluRay.REMUX.AVC.DTS-HD.MA.5.1-FGT 22.10gb Thank you    Video   ID                                       : 1   Format                                   : HEVC   Format/Info                              : High Efficiency Video Coding   Format profile                           : Main [email protected]@High   Codec ID                                 : V_MPEGH/ISO/HEVC   Duration                                 : 1 h 30 min   Bit rate                                 : 707 kb/s   Width                                    : 1 920 pixels   Height                                   : 1 080 pixels   Display aspect ratio                     : 16:9   Frame rate mode                          : Constant   Frame rate                               : 23.976 (24000/1001) FPS   Color space                              : YUV   Chroma subsampling                       : 4:2:0 (Type 2)   Bit depth                                : 10 bits   Bits/(Pixel*Frame)                       : 0.014   Stream size                              : 459 MiB (69%)   Color range                              : Limited   Color primaries                          : BT.2020   Transfer characteristics                 : PQ   Matrix coefficients                      : BT.2020 non-constant    Audio   ID                                       : 2   Format                                   : Opus   Codec ID                                 : A_OPUS   Duration                                 : 1 h 30 min   Bit rate                                 : 292 kb/s   Channel(s)                               : 6 channels   Channel positions                        : Front: L C R, Rear: L R, LFE   Sampling rate                            : 48.0 kHz   Frame rate                               : 50.000 FPS (960 SPF)   Compression mode                         : Lossy   Stream size                              : 190 MiB (28%)   Title                                    : The.Happytime.Murders.2018.1080p.BluRay.REMUX.AVC.DTS-HD.MA.5.1-FGT   Language                                 : English   Default                                  : Yes   Forced                                   : No    Text   ID                                       : 3   Format                                   : PGS   Muxing mode                              : zlib   Codec ID                                 : S_HDMV/PGS   Codec ID/Info                            : Picture based subtitle format used on BDs/HD-DVDs   Duration                                 : 1 h 20 min   Bit rate                                 : 64.1 kb/s   Count of elements                        : 3952   Stream size                              : 36.7 MiB (5%)   Title                                    : English-PGS   Language                                 : English   Default                                  : Yes   Forced                                   : No    Menu   00:00:00.000                             : en:Chapter 01  
Category:Movies > HEVC/x265
Lang:English  English
Total Size:667 MB
Info Hash:90fb444fcaf41ae9dceb440822b2b94d820e24ce
Added By:hevcfrank
Date Added:12-02-2019 17:26:36

  

Files

File List: 
 File Size
The.Happytime.Murders.2018.1080p.BluRay.10bit.5.1 hevc frank.mkv667 MB



Comments

There are currently no comments. Be the first one to write something !