xxx toy story 4 2019 HINDI john wick 3 childs play 2019 the handmaids tale ethd ddr shazam 2019 stuber 2019 captain marvel 2019 godzilla king of the monsters 2019 annabelle comes home 2019 instinct s02e03 evo the rook wwe shaft 2019 2.0 (2018) formula 1 brightburn 2019 i got the hook up 2 2019 chernobyl Ettv instinct alita battle angel 2019 the secret life of pets 2 2019 aladdin 2019 city on a hill s01e05 claws s03e06 john wick chapter 3 – parabellum 2019 Stranger Things spider man far from home 2019 harrow etrg euphoria s01e05 rocketman 2019 big little lies big little lies s02e06 Swamp thing hellboy 2019 fear the walking dead s05e07 men in black international 2019 anna 2019 etmovies DDR fear the walking dead 0 once upon a time in hollywood 2019 the intruder 2019 dark phoenix 2019 the rook s01e03 Euphoria yts big bang theory español ma 2019 crawl 2019 pokemon detective pikachu 2019 avengers endgame us 2019 little 2019 avengers endgame 2019 kabir singh alita midsommar 2019 arrow español dumbo 2019 yesterday 2019 dc week the lion king 2019 nascar endgame john wick 
Warning! Use a VPN When Downloading Torrents!
Your IP Address is 18.209.104.7. Location is United States
Your Internet Provider is tracking your torrent activity! Hide your IP ADDRESS with a VPN!
We strongly recommend using ExpressVPN to anonymize your torrenting. 30 Day Money Back Guarantee!
Try it Now!
ETTV Recommended TV Shows
Big.Little.Lies.S02E06.WEB.h264-TBS[ettv] torrent
Instinct.US.S02E03.720p.HDTV.x264-AVS[ettv] torrent
WWE Extreme Rules 2019 PPV WEB h264-HEEL [TJET] torrent
Dark.Money.S01E03.HDTV.x264-MTB[ettv] torrent

ETTV Recommended SD
The.Intruder.2019.HDRip.AC3.x264-CMRG[EtMovies] torrent
SGT.Will.Gardner.2019.BRRip.XviD.AC3-EVO torrent
The.Cleansing.2019.HDRip.AC3.x264-CMRG[EtMovies] torrent
Hellboy.2019.BDRip.XviD.AC3-EVO[EtMovies] torrent

ETTV Recommended HD
John Wick Chapter 2 (2017)-Keanu Reeves-1080p-H264-AC 3 (DolbyDigital-5.1) & nickarad torrent
Alita.Battle.Angel.2019.Multi.1080p.Blu-ray.HEVC.DTS-HD.MA.7.1-DDR[EtHD] torrent
Poms.2019.1080p.NF.WEB-DL.DDP5.1.x264-NTG[EtHD] torrent
Hellboy.2019.1080p.Bluray.X264-EVO[EtHD] torrent

ETTV Recommended UHD
Shazam! 2019.Multi.UHD.BluRay.2160p.HDR.HEVC.Atmos.7.1[En+Hindi++]-DDR torrent
Hulk 2003.MULTi.Blu-ray.2160.HDR.HEVC.DTS-X.7.1-DDR torrent
Water World 1995.MULTi.Blu-ray.2160p.HEVC.HDR.DTS-X.7.1-DDR torrent
Alita Battle Angel 2019.MULTi.UHD.BluRay.2160p.HDR.Atmos.7.1.HEVC[EN+Hindi++]-DDR.mkv torrent

ETTV Recommended Cam
Yesterday 2019 720p HDCAM-1XBET torrent
Spider-Man Far From Home 2019 NEW 720p HD-TC NO ADS-1XBET torrent
Crawl 2019 720p HDCAM-1XBET torrent
Stuber 2019 720p HDCAM-1XBET torrent

ETTV Recommended Foreign
Sophia.Antipolis.2018.1080p.FRA.WEB-Rip.AAC2.0.HEVC-DDR[EtHD] torrent
Alita: Battle Angel - Alita: Angelo della battaglia (2019).720p.H264.ita.eng.Ac3-5.1.sub.ita.eng-MIRCrew torrent
Devi.2016.1080p.WEB-DL.AVC.AAC.DDR torrent
Kalakalappu 2.2018.1080p.WEB-DL.AVC.AAC.ESub.DDR torrent


Download Torrent "Batman Begins (2005) (1080p BluRay 10-bit x265 HEVC DTS 5.1 Qman) [UTR]"

IMDB Details
Description:

After training with his mentor, Batman begins his fight to free crime-ridden Gotham City from corruption.

Genre:

Action, Adventure, Thriller

Download Torrent (Magnet)
Download Torrent (File)
Seeds: 123
Leechers: 27
Completed: 1,261 
Last Checked: 15-02-2019 06:55:02


Loading...
Details
Title:Batman Begins (2005) (1080p BluRay 10-bit x265 HEVC DTS 5.1 Qman) [UTR]
Description:
[img="https://i.postimg.cc/hjkyHjgc/pirate-shark-banner-with-forum-site-address-www-imagesplitter-n.png" alt=""][img="https://i.postimg.cc/CLHPQS2p/pirate-shark-banner-with-forum-site-address-www-imagesplitter-n.png" alt=""]
[img="https://i.postimg.cc/13vWyMPW/pirate-shark-banner-with-forum-site-address-www-imagesplitter-n.png" alt=""][img="https://i.postimg.cc/yNWLx987/pirate-shark-banner-with-forum-site-address-www-imagesplitter-n.png" alt=""]




Media Information
General
Format                                   : Matroska
Format version                           : Version 4 / Version 2
File size                                : 8.04 GiB
Duration                                 : 2 h 20 min
Overall bit rate                         : 8 215 kb/s
Encoded date                             : UTC 2019-02-14 16:48:04
Writing application                      : mkvmerge v30.1.0 ('Forever And More') 64-bit
Writing library                          : libebml v1.3.6 + libmatroska v1.4.9

Video
ID                                       : 1
Format                                   : HEVC
Format/Info                              : High Efficiency Video Coding
Format profile                           : Main [email protected]@Main
Codec ID                                 : V_MPEGH/ISO/HEVC
Duration                                 : 2 h 20 min
Bit rate                                 : 6 691 kb/s
Width                                    : 1 920 pixels
Height                                   : 800 pixels
Display aspect ratio                     : 2.40:1
Frame rate mode                          : Constant
Frame rate                               : 23.976 (24000/1001) FPS
Color space                              : YUV
Chroma subsampling                       : 4:2:0
Bit depth                                : 10 bits
Bits/(Pixel*Frame)                       : 0.182
Stream size                              : 6.55 GiB (81%)
Writing library                          : x265 3.0_RC+2-8f1c154aae5e:[Windows][GCC 8.2.0][64 bit] 10bit
Encoding settings                        : cpuid=1111039 / frame-threads=4 / numa-pools=16 / wpp / no-pmode / no-pme / no-psnr / no-ssim / log-level=2 / input-csp=1 / input-res=1920x800 / interlace=0 / total-frames=201492 / level-idc=0 / high-tier=1 / uhd-bd=0 / ref=4 / no-allow-non-conformance / no-repeat-headers / annexb / no-aud / no-hrd / info / hash=0 / no-temporal-layers / open-gop / min-keyint=23 / keyint=250 / gop-lookahead=0 / bframes=8 / b-adapt=2 / b-pyramid / bframe-bias=0 / rc-lookahead=90 / lookahead-slices=4 / scenecut=40 / radl=0 / no-splice / no-intra-refresh / ctu=64 / min-cu-size=8 / rect / amp / max-tu-size=32 / tu-inter-depth=1 / tu-intra-depth=1 / limit-tu=0 / rdoq-level=2 / dynamic-rd=0.00 / no-ssim-rd / signhide / no-tskip / nr-intra=0 / nr-inter=0 / no-constrained-intra / no-strong-intra-smoothing / max-merge=3 / limit-refs=3 / limit-modes / me=3 / subme=3 / merange=57 / temporal-mvp / weightp / no-weightb / no-analyze-src-pics / deblock=-3:-3 / no-sao / no-sao-non-deblock / rd=5 / no-early-skip / no-rskip / no-fast-intra / no-tskip-fast / no-cu-lossless / b-intra / no-splitrd-skip / rdpenalty=0 / psy-rd=1.00 / psy-rdoq=5.00 / no-rd-refine / no-lossless / cbqpoffs=0 / crqpoffs=0 / rc=crf / crf=18.0 / qcomp=0.60 / qpstep=4 / stats-write=0 / stats-read=0 / ipratio=1.40 / pbratio=1.30 / aq-mode=3 / aq-strength=1.00 / cutree / zone-count=0 / no-strict-cbr / qg-size=32 / no-rc-grain / qpmax=69 / qpmin=0 / no-const-vbv / sar=0 / overscan=0 / videoformat=5 / range=0 / colorprim=2 / transfer=2 / colormatrix=2 / chromaloc=0 / display-window=0 / max-cll=0,0 / min-luma=0 / max-luma=1023 / log2-max-poc-lsb=8 / vui-timing-info / vui-hrd-info / slices=1 / no-opt-qp-pps / no-opt-ref-list-length-pps / no-multi-pass-opt-rps / scenecut-bias=0.05 / no-opt-cu-delta-qp / no-aq-motion / no-hdr / no-hdr-opt / no-dhdr10-opt / no-idr-recovery-sei / analysis-reuse-level=5 / scale-factor=0 / refine-intra=0 / refine-inter=0 / refine-mv=0 / refine-ctu-distortion=0 / no-limit-sao / ctu-info=0 / no-lowpass-dct / refine-analysis-type=0 / copy-pic=1 / max-ausize-factor=1.0 / no-dynamic-refine / no-single-sei / no-hevc-aq / qp-adaptation-range=1.00
Language                                 : English
Default                                  : Yes
Forced                                   : No

Audio
ID                                       : 2
Format                                   : DTS
Format/Info                              : Digital Theater Systems
Mode                                     : 16
Format settings, Endianness              : Big
Codec ID                                 : A_DTS
Duration                                 : 2 h 20 min
Bit rate mode                            : Constant
Bit rate                                 : 1 509 kb/s
Channel(s)                               : 6 channels
Channel positions                        : Front: L C R, Side: L R, LFE
Sampling rate                            : 48.0 kHz
Frame rate                               : 93.750 FPS (512 spf)
Bit depth                                : 24 bits
Compression mode                         : Lossy
Stream size                              : 1.48 GiB (18%)
Language                                 : English
Default                                  : Yes
Forced                                   : No

Subtitle
ID                                       : 3
Format                                   : PGS
Muxing mode                              : zlib
Codec ID                                 : S_HDMV/PGS
Codec ID/Info                            : Picture based subtitle format used on BDs/HD-DVDs
Duration                                 : 2 h 19 min
Bit rate                                 : 30.2 kb/s
Count of elements                        : 2946
Stream size                              : 30.1 MiB (0%)
Language                                 : English
Default                                  : Yes
Forced                                   : No

Menu
00:00:00.000                             : en:Chapter 1
00:03:39.385                             : en:Chapter 2
00:07:31.325                             : en:Chapter 3
00:11:34.110                             : en:Chapter 4
00:16:15.683                             : en:Chapter 5
00:19:44.433                             : en:Chapter 6
00:24:19.458                             : en:Chapter 7
00:28:24.869                             : en:Chapter 8
00:31:25.383                             : en:Chapter 9
00:35:53.901                             : en:Chapter 10
00:38:24.677                             : en:Chapter 11
00:41:14.680                             : en:Chapter 12
00:43:08.210                             : en:Chapter 13
00:46:57.940                             : en:Chapter 14
00:49:43.939                             : en:Chapter 15
00:53:26.161                             : en:Chapter 16
00:55:55.143                             : en:Chapter 17
00:58:02.353                             : en:Chapter 18
01:03:31.849                             : en:Chapter 19
01:05:53.074                             : en:Chapter 20
01:08:38.948                             : en:Chapter 21
01:11:25.864                             : en:Chapter 22
01:13:19.520                             : en:Chapter 23
01:16:16.238                             : en:Chapter 24
01:19:50.452                             : en:Chapter 25
01:23:54.362                             : en:Chapter 26
01:29:02.754                             : en:Chapter 27
01:32:36.759                             : en:Chapter 28
01:37:49.113                             : en:Chapter 29
01:40:33.777                             : en:Chapter 30
01:45:09.136                             : en:Chapter 31
01:49:32.190                             : en:Chapter 32
01:51:29.349                             : en:Chapter 33
01:54:49.090                             : en:Chapter 34
01:58:11.125                             : en:Chapter 35
02:01:55.099                             : en:Chapter 36
02:05:01.285                             : en:Chapter 37
02:06:06.976                             : en:Chapter 38
02:09:18.584                             : en:Chapter 39
02:10:57.266                             : en:Chapter 40

Source Information
Release: 2160p REMUX 33.5GB SWTYBLZ


Category:Movies > HEVC/x265
Lang:English  English
Total Size:8.04 GB
Info Hash:a54dd4a76b155a24f3fd75376518ca4aa4bc6665
Added By:UTRHD
Date Added:15-02-2019 06:54:59

Files

File List: 
 File Size
Batman.Begins.(2005).1080p.BluRay.10-bit.x265.DTS.5.1 Qman[UTR].mkv8.04 GB



Loading...
Comments

There are currently no comments. Be the first one to write something !