pokemon detective pikachu 2019 avengers endgame 2019 cold pursuit 2019 john wick 2014 charmed s01e22 supergirl s04e22 game of thrones s08e03 billions aquaman 2018 spider man into the spider verse 2018 charmed Hindi captain marvel Game.of.Thrones.S08E06 game of thrones s08e05 2.0 (2018) tushyraw 1080p.mp4-ktr long shot 2019 game ethd brightburn 2019 barry Wwe ddr game of thrones s08e04 the curse of la llorona 2019 yts good girls s02e12 game of thrones s08e01 what men want 2019 game of thrones season 8 tushy 18.12 1080p.mp4-ktr pet sematary 2019 glass 2019 deep state s08e06 Game.of.Thrones ncis los angeles s10e24 killing eve fighting with my family 2019 game of thrones thrones john wick chapter 2 2017 little 2019 john wick chapter 3 – parabellum 2019 aladdin 2019 shazam 2019 last week tonight the intruder 2019 etrg killing eve s02e07 chernobyl evo barry s02e08 game of captain marvel 2019 Game of Thrones S08E06 1080p avengers endgame Game of thrones S08 ettv The Big Bang Theory s12e23 John wick chernobyl s01e03 etmovies us 2019 hellboy 2019 the hustle 2019 keeping up with the kardashians s16e07 the blacklist s06e22 game of thrones season 8 episode 6 the upside 2019 game of thrones s08e06 supergirl 
Warning! Use a VPN When Downloading Torrents!
Your IP Address is 3.208.22.127. Location is United States
Your Internet Provider is tracking your torrent activity! Hide your IP ADDRESS with a VPN!
We strongly recommend using ExpressVPN to anonymize your torrenting. 30 Day Money Back Guarantee!
Try it Now!
ETTV Recommended TV Shows
Mrs.Wilson.S01.1080i.BluRay.MHD.X264.DD.5.1-DDR torrent
WWE Money In The Bank 2019 PPV WEB h264-HEEL [TJET] torrent
The.Fix.2019.S01E10.HDTV.x264-KILLERS[ettv] torrent
DCs.Legends.of.Tomorrow.S04E16.HDTV.x264-KILLERS[ettv] torrent
The.Enemy.Within.S01E13.HDTV.x264-LucidTV[ettv] torrent
The.Code.2019.S01E07.WEB.x264-TBS[ettv] torrent

ETTV Recommended SD
A.Madea.Family.Funeral.2019.HDRip.XViD-ETRG torrent
Gloria.Bell.2019.HDRip.XviD.AC3-EVO torrent
Shazam.2019.V2.HC.HDRip.XviD.AC3-EVO torrent
Run.the.Race.2019.HDRip.XViD-ETRG torrent

ETTV Recommended HD
Bright.Lights.Big.City.1988.1080p.BluRay.MHD.X264.DD.2.0-DDR torrent
Sgt.Will.Gardner.2019.1080p.NF.WEB-DL.H264-ETRG[EtHD] torrent
Gloria.Bell.2019.1080p.WEB-DL.H264.AC3-EVO[EtHD] torrent
Run.the.Race.2019.1080p.WEB-DL.H264.AC3-EVO[EtHD] torrent

ETTV Recommended UHD
Crank 2006.UHD.BluRay.2160p.HDR.HEVC.Atmos.7.1-DDR torrent
Aquaman 2018 1080p BDrip  x265 7.1 TrueHD Atmos D0ct0rLew[SEV] torrent
Field of Dreams 1989.Multi.UHD.2160p.Blu-ray.HDR.HEVC.DTS-HDMA.5.1-DDR torrent
Godzilla 1998.MULTi.UHD.2160p.HDR.HEVC.Atmos.7.1-DDR torrent

ETTV Recommended Cam
Brightburn 2019 HDCAM x264 AC3-ETRG torrent
The Hustle 2019 HDCAM x264 AC3 ETRG torrent
Pokemon  Detective Pikachu 2019 HDCAM x264 AC3-ETRG torrent
John Wick 3 2019 HDCAM x264 -ETRG torrent

ETTV Recommended Foreign
Hotel Milan.2018.1080p.WEB-DL.AVC.AAC.ESub.DDR torrent
Gordy (1995) 720p WEB-DL x264 Eng Subs [Dual Audio] [Hindi DD 2.0 - English 2.0] Exclusive By -=!Dr.STAR!=- torrent
Welcome to Marwen - Benvenuti a Marwen (2018).1080p.H264.italian.english.Ac3-5.1.sub.ita.eng-MIRCrew torrent
24 Kisses (2018) 720p UNCUT HDRip x264 ESubs [Dual Audio] [Hindi DD 2.0 - Telugu DD 2.0]  -UnknownStAr [Telly] torrent


Download Torrent "Jurassic World (2015) (1080p BluRay x265 HEVC 10bit AAC 7.1 Joy) [UTR] "

IMDB Details
Description:

A new theme park, built on the original site of Jurassic Park, creates a genetically modified hybrid dinosaur, the Indominus Rex, which escapes containment and goes on a killing spree.

Genre:

Action, Adventure, Sci-Fi

Download Torrent (Magnet)
Download Torrent (File)
Seeds: 106
Leechers: 86
Completed: 1,280 
Last Checked: 19-02-2019 06:10:03


Loading...
Details
Title:Jurassic World (2015) (1080p BluRay x265 HEVC 10bit AAC 7.1 Joy) [UTR]
Description:
[img="https://i.postimg.cc/hjkyHjgc/pirate-shark-banner-with-forum-site-address-www-imagesplitter-n.png" alt=""][img="https://i.postimg.cc/CLHPQS2p/pirate-shark-banner-with-forum-site-address-www-imagesplitter-n.png" alt=""]
[img="https://i.postimg.cc/13vWyMPW/pirate-shark-banner-with-forum-site-address-www-imagesplitter-n.png" alt=""][img="https://i.postimg.cc/yNWLx987/pirate-shark-banner-with-forum-site-address-www-imagesplitter-n.png" alt=""]




Media Information
General
Format                                   : Matroska
Format version                           : Version 4 / Version 2
File size                                : 1.96 GiB
Duration                                 : 2 h 4 min
Overall bit rate                         : 2 259 kb/s
Movie name                               : Jurassic World 2015  (1080p x265 10bit FS64 Joy)[UTR]
Encoded date                             : UTC 2019-02-18 06:28:48
Writing application                      : mkvmerge v28.1.0 ('Morning Child') 64-bit
Writing library                          : libebml v1.3.6 + libmatroska v1.4.9
Cover                                    : Yes
Attachments                              : cover.jpg
Writing frontend                         : StaxRip v1.8.2.0, Encoded by JoyBell

Video
ID                                       : 1
Format                                   : HEVC
Format/Info                              : High Efficiency Video Coding
Format profile                           : Main [email protected]@Main
Codec ID                                 : V_MPEGH/ISO/HEVC
Duration                                 : 2 h 4 min
Bit rate                                 : 1 792 kb/s
Width                                    : 1 920 pixels
Height                                   : 960 pixels
Display aspect ratio                     : 2.000
Frame rate mode                          : Constant
Frame rate                               : 23.976 (24000/1001) FPS
Color space                              : YUV
Chroma subsampling                       : 4:2:0
Bit depth                                : 10 bits
Bits/(Pixel*Frame)                       : 0.041
Stream size                              : 1.56 GiB (79%)
Writing library                          : x265 3.0_RC+2-8f1c154aae5e:[Windows][MSVC 1920][64 bit] 10bit
Encoding settings                        : cpuid=1111039 / frame-threads=4 / numa-pools=16 / wpp / no-pmode / no-pme / no-psnr / ssim / log-level=2 / input-csp=1 / input-res=1920x960 / interlace=0 / total-frames=178957 / level-idc=0 / high-tier=1 / uhd-bd=0 / ref=4 / no-allow-non-conformance / no-repeat-headers / annexb / no-aud / no-hrd / info / hash=0 / no-temporal-layers / open-gop / min-keyint=23 / keyint=250 / gop-lookahead=0 / bframes=4 / b-adapt=2 / b-pyramid / bframe-bias=0 / rc-lookahead=80 / lookahead-slices=4 / scenecut=40 / radl=0 / no-splice / no-intra-refresh / ctu=64 / min-cu-size=8 / rect / no-amp / max-tu-size=32 / tu-inter-depth=1 / tu-intra-depth=1 / limit-tu=0 / rdoq-level=2 / dynamic-rd=0.00 / ssim-rd / signhide / no-tskip / nr-intra=0 / nr-inter=0 / no-constrained-intra / strong-intra-smoothing / max-merge=3 / limit-refs=3 / limit-modes / me=3 / subme=3 / merange=57 / temporal-mvp / weightp / no-weightb / no-analyze-src-pics / deblock=0:0 / sao / no-sao-non-deblock / rd=4 / no-early-skip / rskip / no-fast-intra / no-tskip-fast / no-cu-lossless / no-b-intra / no-splitrd-skip / rdpenalty=0 / psy-rd=0.00 / psy-rdoq=1.00 / no-rd-refine / no-lossless / cbqpoffs=0 / crqpoffs=0 / rc=abr / bitrate=1800 / qcomp=0.60 / qpstep=4 / stats-write=0 / stats-read=2 / cplxblur=20.0 / qblur=0.5 / vbv-maxrate=4500 / vbv-bufsize=9000 / vbv-init=0.9 / ipratio=1.40 / pbratio=1.30 / aq-mode=2 / aq-strength=0.80 / cutree / zone-count=0 / no-strict-cbr / qg-size=32 / no-rc-grain / qpmax=69 / qpmin=0 / no-const-vbv / sar=0 / overscan=0 / videoformat=5 / range=0 / colorprim=2 / transfer=2 / colormatrix=2 / chromaloc=0 / display-window=0 / max-cll=0,0 / min-luma=0 / max-luma=1023 / log2-max-poc-lsb=8 / vui-timing-info / vui-hrd-info / slices=1 / no-opt-qp-pps / no-opt-ref-list-length-pps / multi-pass-opt-rps / scenecut-bias=0.05 / no-opt-cu-delta-qp / no-aq-motion / no-hdr / no-hdr-opt / no-dhdr10-opt / no-idr-recovery-sei / analysis-reuse-level=10 / scale-factor=0 / refine-intra=0 / refine-inter=0 / refine-mv=0 / refine-ctu-distortion=0 / limit-sao / ctu-info=0 / no-lowpass-dct / refine-analysis-type=0 / copy-pic=1 / max-ausize-factor=1.0 / no-dynamic-refine / no-single-sei / no-hevc-aq / qp-adaptation-range=1.00
Default                                  : Yes
Forced                                   : No

Audio
ID                                       : 2
Format                                   : AAC
Format/Info                              : Advanced Audio Codec
Format profile                           : LC
Codec ID                                 : A_AAC
Duration                                 : 2 h 4 min
Bit rate                                 : 397 kb/s
Channel(s)                               : 7 channels
Channel(s)_Original                      : 8 channels
Channel positions                        : Front: L C R, Side: L R, Back: L R, LFE
Sampling rate                            : 48.0 kHz
Frame rate                               : 46.875 FPS (1024 spf)
Compression mode                         : Lossy
Delay relative to video                  : 9 ms
Stream size                              : 353 MiB (18%)
Language                                 : English
Default                                  : No
Forced                                   : No

Subtitle #1
ID                                       : 3
Format                                   : PGS
Muxing mode                              : zlib
Codec ID                                 : S_HDMV/PGS
Codec ID/Info                            : Picture based subtitle format used on BDs/HD-DVDs
Duration                                 : 1 h 53 min
Bit rate                                 : 36.1 kb/s
Count of elements                        : 2989
Stream size                              : 29.4 MiB (1%)
Language                                 : English
Default                                  : No
Forced                                   : No

Subtitle #2
ID                                       : 4
Format                                   : UTF-8
Codec ID                                 : S_TEXT/UTF8
Codec ID/Info                            : UTF-8 Plain Text
Duration                                 : 1 h 52 min
Bit rate                                 : 48 b/s
Count of elements                        : 1291
Stream size                              : 39.9 KiB (0%)
Language                                 : English
Default                                  : No
Forced                                   : No

Subtitle #3
ID                                       : 5
Format                                   : UTF-8
Codec ID                                 : S_TEXT/UTF8
Codec ID/Info                            : UTF-8 Plain Text
Duration                                 : 1 h 53 min
Bit rate                                 : 53 b/s
Count of elements                        : 1494
Stream size                              : 44.3 KiB (0%)
Language                                 : English
Default                                  : No
Forced                                   : No

Subtitle #4
ID                                       : 6
Format                                   : VobSub
Muxing mode                              : zlib
Codec ID                                 : S_VOBSUB
Codec ID/Info                            : Picture based subtitle format used on DVDs
Duration                                 : 2 h 2 min
Bit rate                                 : 5 587 b/s
Count of elements                        : 1169
Stream size                              : 4.91 MiB (0%)
Language                                 : French
Default                                  : No
Forced                                   : No

Subtitle #5
ID                                       : 7
Format                                   : VobSub
Muxing mode                              : zlib
Codec ID                                 : S_VOBSUB
Codec ID/Info                            : Picture based subtitle format used on DVDs
Duration                                 : 2 h 2 min
Bit rate                                 : 6 034 b/s
Count of elements                        : 894
Stream size                              : 5.27 MiB (0%)
Language                                 : Dutch
Default                                  : No
Forced                                   : No

Subtitle #6
ID                                       : 8
Format                                   : VobSub
Muxing mode                              : zlib
Codec ID                                 : S_VOBSUB
Codec ID/Info                            : Picture based subtitle format used on DVDs
Duration                                 : 2 h 2 min
Bit rate                                 : 6 866 b/s
Count of elements                        : 1002
Stream size                              : 6.00 MiB (0%)
Language                                 : Swedish
Default                                  : No
Forced                                   : No

Subtitle #7
ID                                       : 9
Format                                   : VobSub
Muxing mode                              : zlib
Codec ID                                 : S_VOBSUB
Codec ID/Info                            : Picture based subtitle format used on DVDs
Duration                                 : 2 h 2 min
Bit rate                                 : 5 814 b/s
Count of elements                        : 1068
Stream size                              : 5.08 MiB (0%)
Language                                 : Norwegian Bokmal
Default                                  : No
Forced                                   : No

Subtitle #8
ID                                       : 10
Format                                   : VobSub
Muxing mode                              : zlib
Codec ID                                 : S_VOBSUB
Codec ID/Info                            : Picture based subtitle format used on DVDs
Duration                                 : 2 h 2 min
Bit rate                                 : 6 533 b/s
Count of elements                        : 958
Stream size                              : 5.71 MiB (0%)
Language                                 : English
Default                                  : No
Forced                                   : No

Subtitle #9
ID                                       : 11
Format                                   : VobSub
Muxing mode                              : zlib
Codec ID                                 : S_VOBSUB
Codec ID/Info                            : Picture based subtitle format used on DVDs
Duration                                 : 2 h 2 min
Bit rate                                 : 5 929 b/s
Count of elements                        : 868
Stream size                              : 5.18 MiB (0%)
Language                                 : Finnish
Default                                  : No
Forced                                   : No

Subtitle #10
ID                                       : 12
Format                                   : VobSub
Muxing mode                              : zlib
Codec ID                                 : S_VOBSUB
Codec ID/Info                            : Picture based subtitle format used on DVDs
Duration                                 : 2 h 2 min
Bit rate                                 : 7 616 b/s
Count of elements                        : 1227
Stream size                              : 6.66 MiB (0%)
Language                                 : Russian
Default                                  : No
Forced                                   : No

Subtitle #11
ID                                       : 13
Format                                   : VobSub
Muxing mode                              : zlib
Codec ID                                 : S_VOBSUB
Codec ID/Info                            : Picture based subtitle format used on DVDs
Duration                                 : 2 h 3 min
Bit rate                                 : 6 137 b/s
Count of elements                        : 961
Stream size                              : 5.42 MiB (0%)
Language                                 : Czech
Default                                  : No
Forced                                   : No

Subtitle #12
ID                                       : 14
Format                                   : VobSub
Muxing mode                              : zlib
Codec ID                                 : S_VOBSUB
Codec ID/Info                            : Picture based subtitle format used on DVDs
Duration                                 : 2 h 2 min
Bit rate                                 : 6 042 b/s
Count of elements                        : 1217
Stream size                              : 5.28 MiB (0%)
Language                                 : Polish
Default                                  : No
Forced                                   : No

Subtitle #13
ID                                       : 15
Format                                   : VobSub
Muxing mode                              : zlib
Codec ID                                 : S_VOBSUB
Codec ID/Info                            : Picture based subtitle format used on DVDs
Duration                                 : 2 h 3 min
Bit rate                                 : 6 412 b/s
Count of elements                        : 1196
Stream size                              : 5.66 MiB (0%)
Language                                 : Romanian
Default                                  : No
Forced                                   : No

Subtitle #14
ID                                       : 16
Format                                   : VobSub
Muxing mode                              : zlib
Codec ID                                 : S_VOBSUB
Codec ID/Info                            : Picture based subtitle format used on DVDs
Duration                                 : 2 h 2 min
Bit rate                                 : 7 661 b/s
Count of elements                        : 1235
Stream size                              : 6.70 MiB (0%)
Language                                 : Greek
Default                                  : No
Forced                                   : No

Subtitle #15
ID                                       : 17
Format                                   : VobSub
Muxing mode                              : zlib
Codec ID                                 : S_VOBSUB
Codec ID/Info                            : Picture based subtitle format used on DVDs
Duration                                 : 2 h 3 min
Bit rate                                 : 4 702 b/s
Count of elements                        : 1226
Stream size                              : 4.14 MiB (0%)
Language                                 : Chinese
Default                                  : No
Forced                                   : No

Subtitle #16
ID                                       : 18
Format                                   : VobSub
Muxing mode                              : zlib
Codec ID                                 : S_VOBSUB
Codec ID/Info                            : Picture based subtitle format used on DVDs
Duration                                 : 2 h 2 min
Bit rate                                 : 5 326 b/s
Count of elements                        : 1273
Stream size                              : 4.66 MiB (0%)
Language                                 : Chinese
Default                                  : No
Forced                                   : No

Subtitle #17
ID                                       : 19
Format                                   : VobSub
Muxing mode                              : zlib
Codec ID                                 : S_VOBSUB
Codec ID/Info                            : Picture based subtitle format used on DVDs
Duration                                 : 2 h 3 min
Bit rate                                 : 4 683 b/s
Count of elements                        : 1182
Stream size                              : 4.13 MiB (0%)
Language                                 : Korean
Default                                  : No
Forced                                   : No

Subtitle #18
ID                                       : 20
Format                                   : UTF-8
Codec ID                                 : S_TEXT/UTF8
Codec ID/Info                            : UTF-8 Plain Text
Duration                                 : 1 h 56 min
Bit rate                                 : 71 b/s
Count of elements                        : 1217
Stream size                              : 61.4 KiB (0%)
Language                                 : Arabic
Default                                  : No
Forced                                   : No

Subtitle #19
ID                                       : 21
Format                                   : UTF-8
Codec ID                                 : S_TEXT/UTF8
Codec ID/Info                            : UTF-8 Plain Text
Duration                                 : 1 h 54 min
Bit rate                                 : 41 b/s
Count of elements                        : 965
Stream size                              : 34.8 KiB (0%)
Language                                 : Danish
Default                                  : No
Forced                                   : No

Subtitle #20
ID                                       : 22
Format                                   : UTF-8
Codec ID                                 : S_TEXT/UTF8
Codec ID/Info                            : UTF-8 Plain Text
Duration                                 : 1 h 55 min
Bit rate                                 : 89 b/s
Count of elements                        : 1211
Stream size                              : 75.8 KiB (0%)
Language                                 : Persian
Default                                  : No
Forced                                   : No

Subtitle #21
ID                                       : 23
Format                                   : UTF-8
Codec ID                                 : S_TEXT/UTF8
Codec ID/Info                            : UTF-8 Plain Text
Duration                                 : 1 h 52 min
Bit rate                                 : 50 b/s
Count of elements                        : 1221
Stream size                              : 42.1 KiB (0%)
Language                                 : German
Default                                  : No
Forced                                   : No

Subtitle #22
ID                                       : 24
Format                                   : UTF-8
Codec ID                                 : S_TEXT/UTF8
Codec ID/Info                            : UTF-8 Plain Text
Duration                                 : 1 h 56 min
Bit rate                                 : 65 b/s
Count of elements                        : 1147
Stream size                              : 55.8 KiB (0%)
Language                                 : Hebrew
Default                                  : No
Forced                                   : No

Subtitle #23
ID                                       : 25
Format                                   : UTF-8
Codec ID                                 : S_TEXT/UTF8
Codec ID/Info                            : UTF-8 Plain Text
Duration                                 : 1 h 55 min
Bit rate                                 : 132 b/s
Count of elements                        : 1489
Stream size                              : 112 KiB (0%)
Language                                 : Hindi
Default                                  : No
Forced                                   : No

Subtitle #24
ID                                       : 26
Format                                   : UTF-8
Codec ID                                 : S_TEXT/UTF8
Codec ID/Info                            : UTF-8 Plain Text
Duration                                 : 1 h 52 min
Bit rate                                 : 50 b/s
Count of elements                        : 1214
Stream size                              : 41.4 KiB (0%)
Language                                 : Indonesian
Default                                  : No
Forced                                   : No

Subtitle #25
ID                                       : 27
Format                                   : UTF-8
Codec ID                                 : S_TEXT/UTF8
Codec ID/Info                            : UTF-8 Plain Text
Duration                                 : 1 h 52 min
Bit rate                                 : 45 b/s
Count of elements                        : 1220
Stream size                              : 37.6 KiB (0%)
Language                                 : Italian
Default                                  : No
Forced                                   : No

Subtitle #26
ID                                       : 28
Format                                   : UTF-8
Codec ID                                 : S_TEXT/UTF8
Codec ID/Info                            : UTF-8 Plain Text
Duration                                 : 2 h 2 min
Bit rate                                 : 99 b/s
Count of elements                        : 1228
Stream size                              : 88.8 KiB (0%)
Language                                 : Thai
Default                                  : No
Forced                                   : No

Subtitle #27
ID                                       : 29
Format                                   : UTF-8
Codec ID                                 : S_TEXT/UTF8
Codec ID/Info                            : UTF-8 Plain Text
Duration                                 : 2 h 3 min
Bit rate                                 : 60 b/s
Count of elements                        : 1228
Stream size                              : 54.6 KiB (0%)
Language                                 : Vietnamese
Default                                  : No
Forced                                   : No

Menu
00:00:00.000                             : en:00:00:00.000
00:06:59.169                             : en:00:06:59.169
00:11:01.828                             : en:00:11:01.828
00:18:28.441                             : en:00:18:28.441
00:25:34.867                             : en:00:25:34.867
00:31:20.837                             : en:00:31:20.837
00:39:23.861                             : en:00:39:23.861
00:44:07.854                             : en:00:44:07.854
00:48:57.226                             : en:00:48:57.226
00:55:51.056                             : en:00:55:51.056
01:01:21.344                             : en:01:01:21.344
01:09:50.561                             : en:01:09:50.561
01:15:25.479                             : en:01:15:25.479
01:23:51.860                             : en:01:23:51.860
01:30:14.701                             : en:01:30:14.701
01:36:45.425                             : en:01:36:45.425
01:41:15.653                             : en:01:41:15.653
01:47:35.282                             : en:01:47:35.282
01:53:06.029                             : en:01:53:06.029
01:55:37.556                             : en:01:55:37.556

Source Information
Release: Jurassic.World.2015.2160p.UHD.BluRay.X265-IAMABLE.mkv (35.39 GBs)


Category:Movies > HEVC/x265
Lang:English  English
Total Size:1.96 GB
Info Hash:61cdef4f4542cf71c7b01c02d4fa4b94185b7c54
Added By:UTR
Date Added:19-02-2019 06:10:00

Files

File List: 
 File Size
Jurassic World 2015 (1080p x265 10bit FS64 Joy).mkv1.96 GB



Comments

There are currently no comments. Be the first one to write something !