ettv what we do in the shadows jane the virgin s05e09 The Twilight Zone avengers endgame happy pet sematary 2019 ncis john wick 3 Game of Thrones s08e06 tushy 18.12 1080p.mp4-ktr tushyraw 1080p.mp4-ktr whiskey cavalier chicago fire s07e22 the 100 ddr Hindi aquaman 2018 etrg john wick once upon a time in hollywood 2019 Killing Eve chernobyl s01e03 ncis s16e24 the 100 s06e04 Chicago Med hellboy 2019 seal team shazam 2019 yts evo brightburn 2019 Ddr captain marvel the hustle 2019 chicago fire 2.0 (2018) chicago pd s06e22 john wick chapter 2 2017 captain marvel 2019 chernobyl s01e02 men in black international 2019 rocketman 2019 the upside 2019 us 2019 game of thrones s08e04 long shot 2019 avengers endgame 2019 cold pursuit 2019 Wwe glass 2019 pokemon detective pikachu 2019 chicago med s04e22 the intruder 2019 little 2019 chernobyl john wick 2014 a madea family funeral 2019 game of thrones s08e05 fighting with my family 2019 supergirl game of thrones what men want 2019 ethd john wick chapter 3 – parabellum 2019 Whiskey Cavalier S01E13 the curse of la llorona 2019 etmovies chernobyl s01e01 seal team s02e22 us Chicago PD aladdin 2019 
Warning! Use a VPN When Downloading Torrents!
Your IP Address is 34.207.82.217. Location is United States
Your Internet Provider is tracking your torrent activity! Hide your IP ADDRESS with a VPN!
We strongly recommend using ExpressVPN to anonymize your torrenting. 30 Day Money Back Guarantee!
Try it Now!
ETTV Recommended TV Shows
Chicago.PD.S06E22.HDTV.x264-KILLERS[ettv] torrent
Jane.The.Virgin.S05E09.WEB.h264-TBS[ettv] torrent
Chicago.Fire.S07E22.HDTV.x264-KILLERS[ettv] torrent
SEAL.Team.S02E22.HDTV.x264-SVA[ettv] torrent
Whiskey.Cavalier.S01E13.HDTV.x264-KILLERS[ettv] torrent
The.Twilight.Zone.2019.S01E09.WEB.x264-TBS[ettv] torrent

ETTV Recommended SD
Beyond.White.Space.2018.BRRip.XviD.AC3-EVO torrent
Shed.of.The.Dead.2019.BDRip.XviD.AC3-EVO torrent
Wheely.2018.BDRip.XviD.AC3-EVO torrent
Red.Island.2019.BDRip.XviD.AC3-EVO torrent

ETTV Recommended HD
Us.2019.1080p.WEB-DL.H264.AC3-EVO[EtHD] torrent
Polaroid 2019.Multi.1080p.Blu-ray.DTS-HDMA.5.1-DDR torrent
Trading Paint 2019.Blu-ray.1080p.HEVC.DTS-HDMA.5.1-DDR torrent
Rottentail 2018.Blu-ray.1080p.HEVC.DTS-HDMA.5.1-DDR torrent

ETTV Recommended UHD
Crank 2006.UHD.BluRay.2160p.HDR.HEVC.Atmos.7.1-DDR torrent
Aquaman 2018 1080p BDrip  x265 7.1 TrueHD Atmos D0ct0rLew[SEV] torrent
Field of Dreams 1989.Multi.UHD.2160p.Blu-ray.HDR.HEVC.DTS-HDMA.5.1-DDR torrent
Godzilla 1998.MULTi.UHD.2160p.HDR.HEVC.Atmos.7.1-DDR torrent

ETTV Recommended Cam
The Hustle 2019 HDCAM x264 AC3 ETRG torrent
Pokemon  Detective Pikachu 2019 HDCAM x264 AC3-ETRG torrent
John Wick 3 2019 HDCAM x264 -ETRG torrent
Aladdin 2019 HDCAM x264 AC3-ETRG torrent

ETTV Recommended Foreign
Yennamo Yedho (2014) 720p UNCUT HDRip x264 Eng Subs [Dual Audio] [Hindi DD 2.0 - Telugu 2.0] Exclusive By -=!Dr.STAR!=- torrent
Furie aka Hai Phuong.2019.1080p.NF.Vietnamese.WEB-DL.H264-ETRG[EtHD] torrent
Mughal-E-Azam.1960.1080p.WEB-DL.AVC.AAC.ESub.DDR torrent
The Hate U Give - Il coraggio della verità (2019).1080p.H264.italian.english.Ac3-5.1.sub.ita-MIRCrew torrent


Download Torrent "The Nutcracker and the Four Realms (2018) (2160p BluRay x265 HEVC 10bit AAC..."

IMDB Details
Description:

A young girl is transported into a magical world of gingerbread soldiers and an army of mice.

Genre:

Adventure, Family, Fantasy

Download Torrent (Magnet)
Download Torrent (File)
Seeds: 180
Leechers: 63
Completed: 1,853 
Last Checked: 19-02-2019 17:42:22


Loading...
Details
Title:The Nutcracker and the Four Realms (2018) (2160p BluRay x265 HEVC 10bit AAC...
Description:
[img="https://i.postimg.cc/hjkyHjgc/pirate-shark-banner-with-forum-site-address-www-imagesplitter-n.png" alt=""][img="https://i.postimg.cc/CLHPQS2p/pirate-shark-banner-with-forum-site-address-www-imagesplitter-n.png" alt=""]
[img="https://i.postimg.cc/13vWyMPW/pirate-shark-banner-with-forum-site-address-www-imagesplitter-n.png" alt=""][img="https://i.postimg.cc/yNWLx987/pirate-shark-banner-with-forum-site-address-www-imagesplitter-n.png" alt=""]


Media Information
General
Format                                   : Matroska
Format version                           : Version 4 / Version 2
File size                                : 4.48 GiB
Duration                                 : 1 h 39 min
Overall bit rate                         : 6 460 kb/s
Movie name                               : The Nutcracker and the Four Realms 2018  (2160p x265 10bit S83 Joy)[UTR]
Encoded date                             : UTC 2019-02-19 02:01:44
Writing application                      : mkvmerge v29.0.0 ('Like It Or Not') 64-bit
Writing library                          : libebml v1.3.6 + libmatroska v1.4.9
Cover                                    : Yes
Attachments                              : cover.jpg
Writing frontend                         : StaxRip v2.0, Encoded by JoyBell

Video
ID                                       : 1
Format                                   : HEVC
Format/Info                              : High Efficiency Video Coding
Format profile                           : Main [email protected]@Main
Codec ID                                 : V_MPEGH/ISO/HEVC
Duration                                 : 1 h 39 min
Bit rate                                 : 5 997 kb/s
Width                                    : 3 840 pixels
Height                                   : 2 064 pixels
Display aspect ratio                     : 1.85:1
Frame rate mode                          : Constant
Frame rate                               : 23.976 (24000/1001) FPS
Color space                              : YUV
Chroma subsampling                       : 4:2:0
Bit depth                                : 10 bits
Bits/(Pixel*Frame)                       : 0.032
Stream size                              : 4.16 GiB (93%)
Writing library                          : x265 2.9+15-81373aab81df:[Windows][MSVC 1916][64 bit] 10bit
Encoding settings                        : cpuid=1111039 / frame-threads=3 / numa-pools=12 / wpp / no-pmode / no-pme / no-psnr / ssim / log-level=2 / input-csp=1 / input-res=3840x2064 / interlace=0 / total-frames=142805 / level-idc=0 / high-tier=1 / uhd-bd=0 / ref=4 / no-allow-non-conformance / no-repeat-headers / annexb / no-aud / no-hrd / info / hash=0 / no-temporal-layers / open-gop / min-keyint=23 / keyint=250 / gop-lookahead=0 / bframes=8 / b-adapt=2 / b-pyramid / bframe-bias=40 / rc-lookahead=80 / lookahead-slices=4 / scenecut=40 / radl=0 / no-splice / no-intra-refresh / ctu=64 / min-cu-size=8 / no-rect / no-amp / max-tu-size=32 / tu-inter-depth=1 / tu-intra-depth=1 / limit-tu=0 / rdoq-level=2 / dynamic-rd=0.00 / ssim-rd / signhide / no-tskip / nr-intra=0 / nr-inter=0 / no-constrained-intra / strong-intra-smoothing / max-merge=3 / limit-refs=3 / limit-modes / me=3 / subme=3 / merange=57 / temporal-mvp / weightp / no-weightb / no-analyze-src-pics / deblock=0:0 / sao / no-sao-non-deblock / rd=4 / early-skip / rskip / no-fast-intra / no-tskip-fast / no-cu-lossless / no-b-intra / splitrd-skip / rdpenalty=0 / psy-rd=2.20 / psy-rdoq=1.15 / no-rd-refine / no-lossless / cbqpoffs=0 / crqpoffs=0 / rc=abr / bitrate=6000 / qcomp=0.50 / qpstep=4 / stats-write=0 / stats-read=2 / cplxblur=20.0 / qblur=0.5 / ipratio=1.40 / pbratio=1.30 / aq-mode=3 / aq-strength=0.80 / cutree / zone-count=0 / no-strict-cbr / qg-size=32 / no-rc-grain / qpmax=69 / qpmin=0 / no-const-vbv / sar=0 / overscan=0 / videoformat=5 / range=0 / colorprim=2 / transfer=2 / colormatrix=2 / chromaloc=0 / display-window=0 / max-cll=0,0 / min-luma=0 / max-luma=1023 / log2-max-poc-lsb=8 / vui-timing-info / vui-hrd-info / slices=1 / no-opt-qp-pps / no-opt-ref-list-length-pps / multi-pass-opt-rps / scenecut-bias=0.05 / no-opt-cu-delta-qp / no-aq-motion / no-hdr / no-hdr-opt / no-dhdr10-opt / no-idr-recovery-sei / analysis-reuse-level=10 / scale-factor=0 / refine-intra=0 / refine-inter=0 / refine-mv=0 / limit-sao / ctu-info=0 / no-lowpass-dct / refine-mv-type=0 / copy-pic=1 / max-ausize-factor=1.0 / no-dynamic-refine / no-single-sei
Default                                  : Yes
Forced                                   : No

Audio
ID                                       : 2
Format                                   : AAC
Format/Info                              : Advanced Audio Codec
Format profile                           : LC
Codec ID                                 : A_AAC
Duration                                 : 1 h 39 min
Bit rate                                 : 446 kb/s
Channel(s)                               : 7 channels
Channel(s)_Original                      : 8 channels
Channel positions                        : Front: L C R, Side: L R, Back: L R, LFE
Sampling rate                            : 48.0 kHz
Frame rate                               : 46.875 FPS (1024 spf)
Compression mode                         : Lossy
Delay relative to video                  : 9 ms
Stream size                              : 317 MiB (7%)
Language                                 : English
Default                                  : No
Forced                                   : No

Subtitle #1
ID                                       : 3
Format                                   : UTF-8
Codec ID                                 : S_TEXT/UTF8
Codec ID/Info                            : UTF-8 Plain Text
Duration                                 : 1 h 27 min
Bit rate                                 : 43 b/s
Count of elements                        : 1098
Stream size                              : 27.7 KiB (0%)
Language                                 : English
Default                                  : No
Forced                                   : No

Subtitle #2
ID                                       : 4
Format                                   : UTF-8
Codec ID                                 : S_TEXT/UTF8
Codec ID/Info                            : UTF-8 Plain Text
Duration                                 : 1 h 36 min
Bit rate                                 : 45 b/s
Count of elements                        : 1340
Stream size                              : 32.4 KiB (0%)
Language                                 : English
Default                                  : No
Forced                                   : No

Subtitle #3
ID                                       : 5
Format                                   : VobSub
Muxing mode                              : zlib
Codec ID                                 : S_VOBSUB
Codec ID/Info                            : Picture based subtitle format used on DVDs
Duration                                 : 1 h 36 min
Bit rate                                 : 8 641 b/s
Count of elements                        : 1343
Stream size                              : 5.98 MiB (0%)
Language                                 : English
Default                                  : No
Forced                                   : No

Subtitle #4
ID                                       : 6
Format                                   : VobSub
Muxing mode                              : zlib
Codec ID                                 : S_VOBSUB
Codec ID/Info                            : Picture based subtitle format used on DVDs
Duration                                 : 1 h 31 min
Bit rate                                 : 7 406 b/s
Count of elements                        : 1066
Stream size                              : 4.84 MiB (0%)
Language                                 : French
Default                                  : No
Forced                                   : No

Subtitle #5
ID                                       : 7
Format                                   : VobSub
Muxing mode                              : zlib
Codec ID                                 : S_VOBSUB
Codec ID/Info                            : Picture based subtitle format used on DVDs
Duration                                 : 1 h 31 min
Bit rate                                 : 6 836 b/s
Count of elements                        : 1042
Stream size                              : 4.47 MiB (0%)
Language                                 : Spanish
Default                                  : No
Forced                                   : No

Subtitle #6
ID                                       : 8
Format                                   : UTF-8
Codec ID                                 : S_TEXT/UTF8
Codec ID/Info                            : UTF-8 Plain Text
Duration                                 : 1 h 29 min
Bit rate                                 : 56 b/s
Count of elements                        : 1092
Stream size                              : 37.1 KiB (0%)
Language                                 : Arabic
Default                                  : No
Forced                                   : No

Subtitle #7
ID                                       : 9
Format                                   : UTF-8
Codec ID                                 : S_TEXT/UTF8
Codec ID/Info                            : UTF-8 Plain Text
Duration                                 : 1 h 33 min
Bit rate                                 : 32 b/s
Count of elements                        : 1045
Stream size                              : 22.5 KiB (0%)
Language                                 : Chinese
Default                                  : No
Forced                                   : No

Subtitle #8
ID                                       : 10
Format                                   : UTF-8
Codec ID                                 : S_TEXT/UTF8
Codec ID/Info                            : UTF-8 Plain Text
Duration                                 : 1 h 32 min
Bit rate                                 : 39 b/s
Count of elements                        : 977
Stream size                              : 26.6 KiB (0%)
Language                                 : Danish
Default                                  : No
Forced                                   : No

Subtitle #9
ID                                       : 11
Format                                   : UTF-8
Codec ID                                 : S_TEXT/UTF8
Codec ID/Info                            : UTF-8 Plain Text
Duration                                 : 1 h 33 min
Bit rate                                 : 43 b/s
Count of elements                        : 832
Stream size                              : 29.9 KiB (0%)
Language                                 : Dutch
Default                                  : No
Forced                                   : No

Subtitle #10
ID                                       : 12
Format                                   : UTF-8
Codec ID                                 : S_TEXT/UTF8
Codec ID/Info                            : UTF-8 Plain Text
Duration                                 : 1 h 27 min
Bit rate                                 : 73 b/s
Count of elements                        : 1105
Stream size                              : 47.0 KiB (0%)
Language                                 : Persian
Default                                  : No
Forced                                   : No

Subtitle #11
ID                                       : 13
Format                                   : UTF-8
Codec ID                                 : S_TEXT/UTF8
Codec ID/Info                            : UTF-8 Plain Text
Duration                                 : 1 h 34 min
Bit rate                                 : 88 b/s
Count of elements                        : 1157
Stream size                              : 61.1 KiB (0%)
Language                                 : Indonesian
Default                                  : No
Forced                                   : No

Subtitle #12
ID                                       : 14
Format                                   : UTF-8
Codec ID                                 : S_TEXT/UTF8
Codec ID/Info                            : UTF-8 Plain Text
Duration                                 : 1 h 32 min
Bit rate                                 : 41 b/s
Count of elements                        : 1103
Stream size                              : 28.0 KiB (0%)
Language                                 : Swedish
Default                                  : No
Forced                                   : No

Subtitle #13
ID                                       : 15
Format                                   : UTF-8
Codec ID                                 : S_TEXT/UTF8
Codec ID/Info                            : UTF-8 Plain Text
Duration                                 : 1 h 33 min
Bit rate                                 : 88 b/s
Count of elements                        : 1045
Stream size                              : 61.1 KiB (0%)
Language                                 : Thai
Default                                  : No
Forced                                   : No

Subtitle #14
ID                                       : 16
Format                                   : UTF-8
Codec ID                                 : S_TEXT/UTF8
Codec ID/Info                            : UTF-8 Plain Text
Duration                                 : 1 h 30 min
Bit rate                                 : 52 b/s
Count of elements                        : 1037
Stream size                              : 35.0 KiB (0%)
Language                                 : Vietnamese
Default                                  : No
Forced                                   : No

Menu
00:00:00.000                             : :Chapter 1
00:08:39.101                             : :Chapter 2
00:16:47.256                             : :Chapter 3
00:25:37.744                             : :Chapter 4
00:34:20.892                             : :Chapter 5
00:43:28.397                             : :Chapter 6
00:48:31.992                             : :Chapter 7
00:56:07.655                             : :Chapter 8
00:59:09.546                             : :Chapter 9
01:04:57.310                             : :Chapter 10
01:11:49.722                             : :Chapter 11
01:18:10.519                             : :Chapter 12
01:22:04.002                             : :Chapter 13
01:30:06.275                             : :Chapter 14

Source Information
Release: The.Nutcracker.and.the.Four.Realms.2018.2160p.BluRay.x265.10bit.SDR.DTS-HD.MA.TrueHD.7.1.Atmos-SWTYBLZ.mkv (37.61 GBs)


Category:Movies > HEVC/x265
Lang:English  English
Total Size:4.48 GB
Info Hash:528897bf8848fefd8afd0b476b0ec774d1a13c1a
Added By:UTR
Date Added:19-02-2019 17:42:16

Files

File List: 
 File Size
The Nutcracker and the Four Realms 2018 (2160p x265 10bit S83 Joy).mkv4.48 GB



Comments

There are currently no comments. Be the first one to write something !