euphoria s01e01 wonder park 2019 the intruder 2019 big little lies i am mother 2019 chernobyl s01e01 2.0 (2018) avengers endgame 2019 ettv little 2019 rocketman 2019 pet sematary 2019 avengers endgame swamp thing s01e03 shaft 2019 dark phoenix 2019 etmovies ddr godzilla king of the monsters 2019 john wick 3 the curse of la llorona 2019 spider man into the spider verse 2018 the upside 2019 captive state 2019 big little lies s02e02 the hustle 2019 hotel mumbai 2019 alita battle angel 2019 long shot 2019 captain marvel evo the poison rose 2019 claws s03e02 last week tonight fear the walking dead cold pursuit 2019 captain marvel 2019 ethd men in black international 2019 the mule 2018 deep state toy story 4 2019 a madea family funeral 2019 Euphoria glass 2019 dumbo 2019 alita battle angel jessica jones swamp thing hellboy 2019 dumbo once upon a time in hollywood 2019 shazam 2019 aladdin 2019 pokemon detective pikachu 2019 john wick chapter 2 2017 john wick 2014 yts Chernobyl HINDI us 2019 ma 2019 brightburn 2019 john wick chapter 3 – parabellum 2019 alita fear the walking dead s05e03 aquaman 2018 five feet apart 2019 the chi s02e10 etrg murder mystery 2019 the secret life of pets 2 2019 
Warning! Use a VPN When Downloading Torrents!
Your IP Address is 54.85.162.213. Location is United States
Your Internet Provider is tracking your torrent activity! Hide your IP ADDRESS with a VPN!
We strongly recommend using ExpressVPN to anonymize your torrenting. 30 Day Money Back Guarantee!
Try it Now!
ETTV Recommended TV Shows
Fear.the.Walking.Dead.S05E03.WEB.h264-TBS[ettv] torrent
Deep.State.S02E07.WEBRip.x264-TBS[ettv] torrent
Euphoria.US.S01E01.WEB.h264-TBS[ettv] torrent
Big.Little.Lies.S02E02.WEB.h264-TBS[ettv] torrent

ETTV Recommended SD
American.Exit.2019.BDRip.XviD.AC3-EVO torrent
A.Haunting.At.Silver.Falls.The.Return.2019.HDRip.XviD.AC3-EVO torrent
The.Night.Sitter.2018.HDRip.XViD-ETRG torrent
15.Minutes.Of.War.2019.HDRip.XviD.AC3-EVO[EtMovies] torrent

ETTV Recommended HD
American.Beauty.1999.1080p.NF.WEB-DL.H264-ETRG[EtHD] torrent
City of Lies (2019) (1080p BluRay x265 HEVC 10bit DTS 5.1 Qman) [UTR] torrent
Self.less.2015.BDRip.1080p.x264.DTS.DD5.1.Gerald torrent
15.Minutes.Of.War.2019.1080p.WEB-DL.H264.AC3-EVO[EtHD] torrent

ETTV Recommended UHD
Thor Ragnarok (2017) (2160p BluRay x265 HEVC 10bit AAC 7.1 Joy) [UTR] torrent
Godzilla.1998.4K.HDR.2160p.BDRip Ita Eng x265-NAHOM torrent
The.Mummy.2017.4K.HDR.2160p.BDRip Ita Eng x265-NAHOM torrent
Us.2019.2160p.BluRay.x265.10bit.HDR.DTS-HD.MA.TrueHD.7.1.Atmos-SWTYBLZ torrent

ETTV Recommended Cam
Godzilla King of the Monsters 2019 NEW HDCAM x264 AC3-ETRG torrent
Men in Black International 2019 HDCAM x264 AC3-ETRG torrent
Shaft.2019.HDTC.x264.AC3-ETRG torrent
Avengers Endgame.2019.HDTC.x264.AC3-ETRG torrent

ETTV Recommended Foreign
I Nipoti Di Zorro (1968), [DTTrip - H264 - Ita Ac3] HDTVrip 1080i - by Lg Studios  [TNTVillage] MIRCrew torrent
Luckee.2019.720p.NF.Marathi.WEB-DL.H264-ETRG[EtHD] torrent
 The Emoji Movie (2017) x264 720p BluRay Dual Subs {Dual Audio} [Hindi ORG DD 2.0 + English 2.0] Exclusive By DREDD torrent
Mobile.Suit.Gundam.Narrative.2018.1080p.BluRay.x264-HAiKU[EtHD] torrent


Download Torrent "A Million Little Things S01E15 (1080p AMZN WEB-DL x265 HEVC 10bit AC3 5.1 Q..."

IMDB Details
Description:

N/A

Genre:

N/A

Download Torrent (Magnet)
Download Torrent (File)
Seeds: 120
Leechers: 32
Completed: 1,223 
Last Checked: 19-02-2019 18:38:44


Loading...
Details
Title:A Million Little Things S01E15 (1080p AMZN WEB-DL x265 HEVC 10bit AC3 5.1 Q...
Description:
[img="https://i.postimg.cc/hjkyHjgc/pirate-shark-banner-with-forum-site-address-www-imagesplitter-n.png" alt=""][img="https://i.postimg.cc/CLHPQS2p/pirate-shark-banner-with-forum-site-address-www-imagesplitter-n.png" alt=""]
[img="https://i.postimg.cc/13vWyMPW/pirate-shark-banner-with-forum-site-address-www-imagesplitter-n.png" alt=""][img="https://i.postimg.cc/yNWLx987/pirate-shark-banner-with-forum-site-address-www-imagesplitter-n.png" alt=""]




Media Information
General
Format                                   : Matroska
Format version                           : Version 4 / Version 2
File size                                : 682 MiB
Duration                                 : 43 min 2 s
Overall bit rate                         : 2 215 kb/s
Encoded date                             : UTC 2019-02-17 17:35:52
Writing application                      : mkvmerge v30.1.0 ('Forever And More') 64-bit
Writing library                          : libebml v1.3.6 + libmatroska v1.4.9

Video
ID                                       : 1
Format                                   : HEVC
Format/Info                              : High Efficiency Video Coding
Format profile                           : Main [email protected]@Main
Codec ID                                 : V_MPEGH/ISO/HEVC
Duration                                 : 43 min 2 s
Bit rate                                 : 1 573 kb/s
Width                                    : 1 920 pixels
Height                                   : 1 080 pixels
Display aspect ratio                     : 16:9
Frame rate mode                          : Constant
Frame rate                               : 23.976 (24000/1001) FPS
Color space                              : YUV
Chroma subsampling                       : 4:2:0
Bit depth                                : 10 bits
Bits/(Pixel*Frame)                       : 0.032
Stream size                              : 484 MiB (71%)
Writing library                          : x265 3.0_RC+14-46b84ff665fd:[Windows][GCC 8.2.1][64 bit] 10bit
Encoding settings                        : cpuid=1111039 / frame-threads=2 / numa-pools=4 / wpp / no-pmode / no-pme / no-psnr / no-ssim / log-level=2 / input-csp=1 / input-res=1920x1080 / interlace=0 / total-frames=61918 / level-idc=0 / high-tier=1 / uhd-bd=0 / ref=4 / no-allow-non-conformance / no-repeat-headers / annexb / no-aud / no-hrd / info / hash=0 / no-temporal-layers / open-gop / min-keyint=23 / keyint=250 / gop-lookahead=0 / bframes=8 / b-adapt=2 / b-pyramid / bframe-bias=0 / rc-lookahead=50 / lookahead-slices=4 / scenecut=40 / radl=0 / no-splice / no-intra-refresh / ctu=64 / min-cu-size=8 / no-rect / no-amp / max-tu-size=32 / tu-inter-depth=1 / tu-intra-depth=1 / limit-tu=0 / rdoq-level=2 / dynamic-rd=0.00 / no-ssim-rd / signhide / no-tskip / nr-intra=0 / nr-inter=0 / no-constrained-intra / no-strong-intra-smoothing / max-merge=3 / limit-refs=3 / limit-modes / me=3 / subme=3 / merange=57 / temporal-mvp / weightp / no-weightb / no-analyze-src-pics / deblock=1:1 / no-sao / no-sao-non-deblock / rd=4 / no-early-skip / no-rskip / no-fast-intra / no-tskip-fast / no-cu-lossless / no-b-intra / no-splitrd-skip / rdpenalty=0 / psy-rd=1.40 / psy-rdoq=1.00 / no-rd-refine / no-lossless / cbqpoffs=0 / crqpoffs=0 / rc=crf / crf=21.0 / qcomp=0.60 / qpstep=4 / stats-write=0 / stats-read=0 / ipratio=1.40 / pbratio=1.30 / aq-mode=2 / aq-strength=1.00 / cutree / zone-count=0 / no-strict-cbr / qg-size=32 / no-rc-grain / qpmax=69 / qpmin=0 / no-const-vbv / sar=0 / overscan=0 / videoformat=5 / range=0 / colorprim=2 / transfer=2 / colormatrix=2 / chromaloc=0 / display-window=0 / max-cll=0,0 / min-luma=0 / max-luma=1023 / log2-max-poc-lsb=8 / vui-timing-info / vui-hrd-info / slices=1 / no-opt-qp-pps / no-opt-ref-list-length-pps / no-multi-pass-opt-rps / scenecut-bias=0.05 / no-opt-cu-delta-qp / no-aq-motion / no-hdr / no-hdr-opt / no-dhdr10-opt / no-idr-recovery-sei / analysis-reuse-level=5 / scale-factor=0 / refine-intra=0 / refine-inter=0 / refine-mv=0 / refine-ctu-distortion=0 / no-limit-sao / ctu-info=0 / no-lowpass-dct / refine-analysis-type=0 / copy-pic=1 / max-ausize-factor=1.0 / no-dynamic-refine / no-single-sei / no-hevc-aq / qp-adaptation-range=1.00
Language                                 : English
Default                                  : Yes
Forced                                   : No

Audio
ID                                       : 2
Format                                   : E-AC-3
Format/Info                              : Enhanced Audio Coding 3
Format settings, Endianness              : Big
Codec ID                                 : A_EAC3
Duration                                 : 43 min 2 s
Bit rate mode                            : Constant
Bit rate                                 : 640 kb/s
Channel(s)                               : 6 channels
Channel positions                        : Front: L C R, Side: L R, LFE
Sampling rate                            : 48.0 kHz
Frame rate                               : 187.500 FPS (256 spf)
Compression mode                         : Lossy
Stream size                              : 197 MiB (29%)
Language                                 : English
Default                                  : Yes
Forced                                   : No

Subtitle
ID                                       : 3
Format                                   : UTF-8
Codec ID                                 : S_TEXT/UTF8
Codec ID/Info                            : UTF-8 Plain Text
Duration                                 : 42 min 16 s
Bit rate                                 : 94 b/s
Count of elements                        : 936
Stream size                              : 29.3 KiB (0%)
Language                                 : English
Default                                  : Yes
Forced                                   : No

Source Information
Release: Unknown Source/NO-GROUP


Category:TV > HEVC/x265
Lang:English  English
Total Size:682 MB
Info Hash:062dc8f98ba9d73edd27414b5be4c48850507d33
Added By:UTR
Date Added:19-02-2019 18:38:41

Files

File List: 
 File Size
A.Million.Little.Things.S01E15.1080p.AMZN.WEB-DL.x265.10bit.EAC3.6.0-Qman[UTR].mkv682 MB



Comments

There are currently no comments. Be the first one to write something !