ettv what we do in the shadows jane the virgin s05e09 The Twilight Zone avengers endgame happy pet sematary 2019 ncis john wick 3 Game of Thrones s08e06 tushy 18.12 1080p.mp4-ktr tushyraw 1080p.mp4-ktr whiskey cavalier chicago fire s07e22 the 100 ddr Hindi aquaman 2018 etrg john wick once upon a time in hollywood 2019 Killing Eve chernobyl s01e03 ncis s16e24 the 100 s06e04 Chicago Med hellboy 2019 seal team shazam 2019 yts evo brightburn 2019 Ddr captain marvel the hustle 2019 chicago fire 2.0 (2018) chicago pd s06e22 john wick chapter 2 2017 captain marvel 2019 chernobyl s01e02 men in black international 2019 rocketman 2019 the upside 2019 us 2019 game of thrones s08e04 long shot 2019 avengers endgame 2019 cold pursuit 2019 Wwe glass 2019 pokemon detective pikachu 2019 chicago med s04e22 the intruder 2019 little 2019 chernobyl john wick 2014 a madea family funeral 2019 game of thrones s08e05 fighting with my family 2019 supergirl game of thrones what men want 2019 ethd john wick chapter 3 – parabellum 2019 Whiskey Cavalier S01E13 the curse of la llorona 2019 etmovies chernobyl s01e01 seal team s02e22 us Chicago PD aladdin 2019 
Warning! Use a VPN When Downloading Torrents!
Your IP Address is 34.207.82.217. Location is United States
Your Internet Provider is tracking your torrent activity! Hide your IP ADDRESS with a VPN!
We strongly recommend using ExpressVPN to anonymize your torrenting. 30 Day Money Back Guarantee!
Try it Now!
ETTV Recommended TV Shows
Chicago.PD.S06E22.HDTV.x264-KILLERS[ettv] torrent
Jane.The.Virgin.S05E09.WEB.h264-TBS[ettv] torrent
Chicago.Fire.S07E22.HDTV.x264-KILLERS[ettv] torrent
SEAL.Team.S02E22.HDTV.x264-SVA[ettv] torrent
Whiskey.Cavalier.S01E13.HDTV.x264-KILLERS[ettv] torrent
The.Twilight.Zone.2019.S01E09.WEB.x264-TBS[ettv] torrent

ETTV Recommended SD
Beyond.White.Space.2018.BRRip.XviD.AC3-EVO torrent
Shed.of.The.Dead.2019.BDRip.XviD.AC3-EVO torrent
Wheely.2018.BDRip.XviD.AC3-EVO torrent
Red.Island.2019.BDRip.XviD.AC3-EVO torrent

ETTV Recommended HD
Us.2019.1080p.WEB-DL.H264.AC3-EVO[EtHD] torrent
Polaroid 2019.Multi.1080p.Blu-ray.DTS-HDMA.5.1-DDR torrent
Trading Paint 2019.Blu-ray.1080p.HEVC.DTS-HDMA.5.1-DDR torrent
Rottentail 2018.Blu-ray.1080p.HEVC.DTS-HDMA.5.1-DDR torrent

ETTV Recommended UHD
Crank 2006.UHD.BluRay.2160p.HDR.HEVC.Atmos.7.1-DDR torrent
Aquaman 2018 1080p BDrip  x265 7.1 TrueHD Atmos D0ct0rLew[SEV] torrent
Field of Dreams 1989.Multi.UHD.2160p.Blu-ray.HDR.HEVC.DTS-HDMA.5.1-DDR torrent
Godzilla 1998.MULTi.UHD.2160p.HDR.HEVC.Atmos.7.1-DDR torrent

ETTV Recommended Cam
The Hustle 2019 HDCAM x264 AC3 ETRG torrent
Pokemon  Detective Pikachu 2019 HDCAM x264 AC3-ETRG torrent
John Wick 3 2019 HDCAM x264 -ETRG torrent
Aladdin 2019 HDCAM x264 AC3-ETRG torrent

ETTV Recommended Foreign
Yennamo Yedho (2014) 720p UNCUT HDRip x264 Eng Subs [Dual Audio] [Hindi DD 2.0 - Telugu 2.0] Exclusive By -=!Dr.STAR!=- torrent
Furie aka Hai Phuong.2019.1080p.NF.Vietnamese.WEB-DL.H264-ETRG[EtHD] torrent
Mughal-E-Azam.1960.1080p.WEB-DL.AVC.AAC.ESub.DDR torrent
The Hate U Give - Il coraggio della verità (2019).1080p.H264.italian.english.Ac3-5.1.sub.ita-MIRCrew torrent


Download Torrent " FBI S01E14 (1080p AMZN WEB-DL x265 HEVC 10bit AAC 5.1 Joy) [UTR]"

IMDB Details
Description:

N/A

Genre:

N/A

Download Torrent (Magnet)
Download Torrent (File)
Seeds: 106
Leechers: 15
Completed: 1,748 
Last Checked: 21-02-2019 04:26:14


Loading...
Details
Title: FBI S01E14 (1080p AMZN WEB-DL x265 HEVC 10bit AAC 5.1 Joy) [UTR]
Description:
[img="https://i.postimg.cc/hjkyHjgc/pirate-shark-banner-with-forum-site-address-www-imagesplitter-n.png" alt=""][img="https://i.postimg.cc/CLHPQS2p/pirate-shark-banner-with-forum-site-address-www-imagesplitter-n.png" alt=""]
[img="https://i.postimg.cc/13vWyMPW/pirate-shark-banner-with-forum-site-address-www-imagesplitter-n.png" alt=""][img="https://i.postimg.cc/yNWLx987/pirate-shark-banner-with-forum-site-address-www-imagesplitter-n.png" alt=""]


Media Information
General
Format                                   : Matroska
Format version                           : Version 4 / Version 2
File size                                : 434 MiB
Duration                                 : 43 min 45 s
Overall bit rate                         : 1 386 kb/s
Movie name                               : FBI S01E14 Exposed  (1080p x265 10bit Joy)
Encoded date                             : UTC 2019-02-20 21:24:50
Writing application                      : mkvmerge v24.0.0 ('Beyond The Pale') 64-bit
Writing library                          : libebml v1.3.6 + libmatroska v1.4.9
Writing frontend                         : StaxRip v1.8.2.0, a JoyBell Encode

Video
ID                                       : 1
Format                                   : HEVC
Format/Info                              : High Efficiency Video Coding
Format profile                           : Main [email protected]@Main
Codec ID                                 : V_MPEGH/ISO/HEVC
Duration                                 : 43 min 44 s
Bit rate                                 : 1 201 kb/s
Width                                    : 1 920 pixels
Height                                   : 1 080 pixels
Display aspect ratio                     : 16:9
Frame rate mode                          : Constant
Frame rate                               : 24.000 FPS
Color space                              : YUV
Chroma subsampling                       : 4:2:0
Bit depth                                : 10 bits
Bits/(Pixel*Frame)                       : 0.024
Stream size                              : 376 MiB (87%)
Writing library                          : x265 2.9+15-81373aab81df:[Windows][MSVC 1916][64 bit] 10bit
Encoding settings                        : cpuid=1111039 / frame-threads=3 / numa-pools=8 / wpp / no-pmode / no-pme / no-psnr / ssim / log-level=2 / input-csp=1 / input-res=1920x1080 / interlace=0 / total-frames=62999 / level-idc=0 / high-tier=1 / uhd-bd=0 / ref=4 / no-allow-non-conformance / no-repeat-headers / annexb / no-aud / no-hrd / info / hash=0 / no-temporal-layers / open-gop / min-keyint=24 / keyint=250 / gop-lookahead=0 / bframes=8 / b-adapt=2 / b-pyramid / bframe-bias=40 / rc-lookahead=80 / lookahead-slices=4 / scenecut=40 / radl=0 / no-splice / no-intra-refresh / ctu=64 / min-cu-size=8 / no-rect / no-amp / max-tu-size=32 / tu-inter-depth=1 / tu-intra-depth=1 / limit-tu=0 / rdoq-level=2 / dynamic-rd=0.00 / ssim-rd / signhide / no-tskip / nr-intra=0 / nr-inter=0 / no-constrained-intra / strong-intra-smoothing / max-merge=3 / limit-refs=3 / limit-modes / me=3 / subme=3 / merange=57 / temporal-mvp / weightp / no-weightb / no-analyze-src-pics / deblock=0:0 / sao / no-sao-non-deblock / rd=4 / no-early-skip / rskip / no-fast-intra / no-tskip-fast / no-cu-lossless / no-b-intra / no-splitrd-skip / rdpenalty=0 / psy-rd=0.00 / psy-rdoq=1.50 / no-rd-refine / no-lossless / cbqpoffs=0 / crqpoffs=0 / rc=abr / bitrate=1200 / qcomp=0.60 / qpstep=4 / stats-write=0 / stats-read=2 / cplxblur=20.0 / qblur=0.5 / ipratio=1.40 / pbratio=1.30 / aq-mode=3 / aq-strength=0.80 / cutree / zone-count=0 / no-strict-cbr / qg-size=32 / no-rc-grain / qpmax=69 / qpmin=0 / no-const-vbv / sar=0 / overscan=0 / videoformat=5 / range=0 / colorprim=2 / transfer=2 / colormatrix=2 / chromaloc=0 / display-window=0 / max-cll=0,0 / min-luma=0 / max-luma=1023 / log2-max-poc-lsb=8 / vui-timing-info / vui-hrd-info / slices=1 / no-opt-qp-pps / no-opt-ref-list-length-pps / multi-pass-opt-rps / scenecut-bias=0.05 / no-opt-cu-delta-qp / no-aq-motion / no-hdr / no-hdr-opt / no-dhdr10-opt / no-idr-recovery-sei / analysis-reuse-level=10 / scale-factor=0 / refine-intra=0 / refine-inter=0 / refine-mv=0 / limit-sao / ctu-info=0 / no-lowpass-dct / refine-mv-type=0 / copy-pic=1 / max-ausize-factor=1.0 / no-dynamic-refine / no-single-sei
Default                                  : Yes
Forced                                   : No

Audio
ID                                       : 2
Format                                   : AAC
Format/Info                              : Advanced Audio Codec
Format profile                           : HE-AAC / LC
Codec ID                                 : A_AAC
Duration                                 : 43 min 44 s
Bit rate                                 : 182 kb/s
Channel(s)                               : 6 channels
Channel positions                        : Front: L C R, Side: L R, LFE
Sampling rate                            : 48.0 kHz / 24.0 kHz
Frame rate                               : 23.438 FPS (1024 spf)
Compression mode                         : Lossy
Delay relative to video                  : 31 ms
Stream size                              : 57.1 MiB (13%)
Language                                 : English
Default                                  : No
Forced                                   : No

Subtitle #1
ID                                       : 3
Format                                   : UTF-8
Codec ID                                 : S_TEXT/UTF8
Codec ID/Info                            : UTF-8 Plain Text
Duration                                 : 42 min 16 s
Bit rate                                 : 86 b/s
Count of elements                        : 779
Stream size                              : 26.8 KiB (0%)
Language                                 : English
Default                                  : No
Forced                                   : No

Subtitle #2
ID                                       : 4
Format                                   : UTF-8
Codec ID                                 : S_TEXT/UTF8
Codec ID/Info                            : UTF-8 Plain Text
Duration                                 : 43 min 37 s
Bit rate                                 : 85 b/s
Count of elements                        : 832
Stream size                              : 27.3 KiB (0%)
Language                                 : English
Default                                  : No
Forced                                   : No

Source Information
Release: FBI.S01E14.Exposed.1080p.AMZN.WEB-DL.DDP5.1.H.264-NTb.mkv (2.23 GBs)


Category:TV > HEVC/x265
Lang:English  English
Total Size:434 MB
Info Hash:65a8fb9abe39c743fed61b08022bb92c995620b7
Added By:UTR
Date Added:21-02-2019 04:26:04

Files

File List: 
 File Size
FBI S01E14 Exposed (1080p x265 10bit S93 Joy).mkv434 MB



Comments

There are currently no comments. Be the first one to write something !