ettv what we do in the shadows jane the virgin s05e09 The Twilight Zone avengers endgame happy pet sematary 2019 ncis john wick 3 Game of Thrones s08e06 tushy 18.12 1080p.mp4-ktr tushyraw 1080p.mp4-ktr whiskey cavalier chicago fire s07e22 the 100 ddr Hindi aquaman 2018 etrg john wick once upon a time in hollywood 2019 Killing Eve chernobyl s01e03 ncis s16e24 the 100 s06e04 Chicago Med hellboy 2019 seal team shazam 2019 yts evo brightburn 2019 Ddr captain marvel the hustle 2019 chicago fire 2.0 (2018) chicago pd s06e22 john wick chapter 2 2017 captain marvel 2019 chernobyl s01e02 men in black international 2019 rocketman 2019 the upside 2019 us 2019 game of thrones s08e04 long shot 2019 avengers endgame 2019 cold pursuit 2019 Wwe glass 2019 pokemon detective pikachu 2019 chicago med s04e22 the intruder 2019 little 2019 chernobyl john wick 2014 a madea family funeral 2019 game of thrones s08e05 fighting with my family 2019 supergirl game of thrones what men want 2019 ethd john wick chapter 3 – parabellum 2019 Whiskey Cavalier S01E13 the curse of la llorona 2019 etmovies chernobyl s01e01 seal team s02e22 us Chicago PD aladdin 2019 
Warning! Use a VPN When Downloading Torrents!
Your IP Address is 34.207.82.217. Location is United States
Your Internet Provider is tracking your torrent activity! Hide your IP ADDRESS with a VPN!
We strongly recommend using ExpressVPN to anonymize your torrenting. 30 Day Money Back Guarantee!
Try it Now!
ETTV Recommended TV Shows
Chicago.PD.S06E22.HDTV.x264-KILLERS[ettv] torrent
Jane.The.Virgin.S05E09.WEB.h264-TBS[ettv] torrent
Chicago.Fire.S07E22.HDTV.x264-KILLERS[ettv] torrent
SEAL.Team.S02E22.HDTV.x264-SVA[ettv] torrent
Whiskey.Cavalier.S01E13.HDTV.x264-KILLERS[ettv] torrent
The.Twilight.Zone.2019.S01E09.WEB.x264-TBS[ettv] torrent

ETTV Recommended SD
Beyond.White.Space.2018.BRRip.XviD.AC3-EVO torrent
Shed.of.The.Dead.2019.BDRip.XviD.AC3-EVO torrent
Wheely.2018.BDRip.XviD.AC3-EVO torrent
Red.Island.2019.BDRip.XviD.AC3-EVO torrent

ETTV Recommended HD
Us.2019.1080p.WEB-DL.H264.AC3-EVO[EtHD] torrent
Polaroid 2019.Multi.1080p.Blu-ray.DTS-HDMA.5.1-DDR torrent
Trading Paint 2019.Blu-ray.1080p.HEVC.DTS-HDMA.5.1-DDR torrent
Rottentail 2018.Blu-ray.1080p.HEVC.DTS-HDMA.5.1-DDR torrent

ETTV Recommended UHD
Crank 2006.UHD.BluRay.2160p.HDR.HEVC.Atmos.7.1-DDR torrent
Aquaman 2018 1080p BDrip  x265 7.1 TrueHD Atmos D0ct0rLew[SEV] torrent
Field of Dreams 1989.Multi.UHD.2160p.Blu-ray.HDR.HEVC.DTS-HDMA.5.1-DDR torrent
Godzilla 1998.MULTi.UHD.2160p.HDR.HEVC.Atmos.7.1-DDR torrent

ETTV Recommended Cam
The Hustle 2019 HDCAM x264 AC3 ETRG torrent
Pokemon  Detective Pikachu 2019 HDCAM x264 AC3-ETRG torrent
John Wick 3 2019 HDCAM x264 -ETRG torrent
Aladdin 2019 HDCAM x264 AC3-ETRG torrent

ETTV Recommended Foreign
Yennamo Yedho (2014) 720p UNCUT HDRip x264 Eng Subs [Dual Audio] [Hindi DD 2.0 - Telugu 2.0] Exclusive By -=!Dr.STAR!=- torrent
Furie aka Hai Phuong.2019.1080p.NF.Vietnamese.WEB-DL.H264-ETRG[EtHD] torrent
Mughal-E-Azam.1960.1080p.WEB-DL.AVC.AAC.ESub.DDR torrent
The Hate U Give - Il coraggio della verità (2019).1080p.H264.italian.english.Ac3-5.1.sub.ita-MIRCrew torrent


Download Torrent "True Detective S03E08 (1080p AMZN WEB-DL x265 HEVC 10bit AC3 5.1 Qman) [UTR..."

IMDB Details
Description:

N/A

Genre:

N/A

Download Torrent (Magnet)
Download Torrent (File)
Seeds: 1,299
Leechers: 259
Completed: 30,018 
Last Checked: 25-02-2019 15:09:12


Loading...
Details
Title:True Detective S03E08 (1080p AMZN WEB-DL x265 HEVC 10bit AC3 5.1 Qman) [UTR...
Description:



Media Information
General
Format                                   : Matroska
Format version                           : Version 4 / Version 2
File size                                : 1.44 GiB
Duration                                 : 1 h 17 min
Overall bit rate                         : 2 679 kb/s
Encoded date                             : UTC 2019-02-25 14:14:12
Writing application                      : mkvmerge v30.1.0 ('Forever And More') 64-bit
Writing library                          : libebml v1.3.6 + libmatroska v1.4.9

Video
ID                                       : 1
Format                                   : HEVC
Format/Info                              : High Efficiency Video Coding
Format profile                           : Main [email protected]@Main
Codec ID                                 : V_MPEGH/ISO/HEVC
Duration                                 : 1 h 17 min
Bit rate                                 : 2 037 kb/s
Width                                    : 1 920 pixels
Height                                   : 1 080 pixels
Display aspect ratio                     : 16:9
Frame rate mode                          : Constant
Frame rate                               : 23.976 (24000/1001) FPS
Color space                              : YUV
Chroma subsampling                       : 4:2:0
Bit depth                                : 10 bits
Bits/(Pixel*Frame)                       : 0.041
Stream size                              : 1.10 GiB (76%)
Writing library                          : x265 3.0_RC+10-672ce0547e97:[Windows][GCC 8.2.1][64 bit] 10bit
Encoding settings                        : cpuid=1111039 / frame-threads=4 / numa-pools=16 / wpp / no-pmode / no-pme / no-psnr / no-ssim / log-level=2 / input-csp=1 / input-res=1920x1080 / interlace=0 / total-frames=110832 / level-idc=0 / high-tier=1 / uhd-bd=0 / ref=4 / no-allow-non-conformance / no-repeat-headers / annexb / no-aud / no-hrd / info / hash=0 / no-temporal-layers / open-gop / min-keyint=23 / keyint=250 / gop-lookahead=0 / bframes=8 / b-adapt=2 / b-pyramid / bframe-bias=0 / rc-lookahead=50 / lookahead-slices=4 / scenecut=40 / radl=0 / no-splice / no-intra-refresh / ctu=64 / min-cu-size=8 / no-rect / no-amp / max-tu-size=32 / tu-inter-depth=1 / tu-intra-depth=1 / limit-tu=0 / rdoq-level=2 / dynamic-rd=0.00 / no-ssim-rd / signhide / no-tskip / nr-intra=0 / nr-inter=0 / no-constrained-intra / no-strong-intra-smoothing / max-merge=3 / limit-refs=3 / limit-modes / me=3 / subme=3 / merange=57 / temporal-mvp / weightp / no-weightb / no-analyze-src-pics / deblock=1:1 / no-sao / no-sao-non-deblock / rd=4 / no-early-skip / no-rskip / no-fast-intra / no-tskip-fast / no-cu-lossless / no-b-intra / no-splitrd-skip / rdpenalty=0 / psy-rd=1.40 / psy-rdoq=1.00 / no-rd-refine / no-lossless / cbqpoffs=0 / crqpoffs=0 / rc=crf / crf=21.0 / qcomp=0.60 / qpstep=4 / stats-write=0 / stats-read=0 / ipratio=1.40 / pbratio=1.30 / aq-mode=2 / aq-strength=1.00 / cutree / zone-count=0 / no-strict-cbr / qg-size=32 / no-rc-grain / qpmax=69 / qpmin=0 / no-const-vbv / sar=0 / overscan=0 / videoformat=5 / range=0 / colorprim=2 / transfer=2 / colormatrix=2 / chromaloc=0 / display-window=0 / max-cll=0,0 / min-luma=0 / max-luma=1023 / log2-max-poc-lsb=8 / vui-timing-info / vui-hrd-info / slices=1 / no-opt-qp-pps / no-opt-ref-list-length-pps / no-multi-pass-opt-rps / scenecut-bias=0.05 / no-opt-cu-delta-qp / no-aq-motion / no-hdr / no-hdr-opt / no-dhdr10-opt / no-idr-recovery-sei / analysis-reuse-level=5 / scale-factor=0 / refine-intra=0 / refine-inter=0 / refine-mv=0 / refine-ctu-distortion=0 / no-limit-sao / ctu-info=0 / no-lowpass-dct / refine-analysis-type=0 / copy-pic=1 / max-ausize-factor=1.0 / no-dynamic-refine / no-single-sei / no-hevc-aq / qp-adaptation-range=1.00
Language                                 : English
Default                                  : Yes
Forced                                   : No

Audio
ID                                       : 2
Format                                   : E-AC-3
Format/Info                              : Enhanced Audio Coding 3
Format settings, Endianness              : Big
Codec ID                                 : A_EAC3
Duration                                 : 1 h 17 min
Bit rate mode                            : Constant
Bit rate                                 : 640 kb/s
Channel(s)                               : 6 channels
Channel positions                        : Front: L C R, Side: L R, LFE
Sampling rate                            : 48.0 kHz
Frame rate                               : 187.500 FPS (256 spf)
Compression mode                         : Lossy
Delay relative to video                  : 18 ms
Stream size                              : 353 MiB (24%)
Language                                 : English
Default                                  : Yes
Forced                                   : No

Subtitle
ID                                       : 3
Format                                   : UTF-8
Codec ID                                 : S_TEXT/UTF8
Codec ID/Info                            : UTF-8 Plain Text
Duration                                 : 1 h 16 min
Bit rate                                 : 53 b/s
Count of elements                        : 1051
Stream size                              : 30.3 KiB (0%)
Language                                 : English
Default                                  : Yes
Forced                                   : No

Source Information
Release: AMZN WEB-DL


Note From UTR
We have no issue with individuals posting or re-uploading our torrents on a platform we aren't on. However, if this is something you'd like to do, please do so in a 'as-is' format. We ask that you do not create a new torrent, include all descriptions you see above including the UTR logo, tags, notes and screenshots. If you'd like to become a permanent poster on a website we don't post to, feel free to get in contact with a UniTeam member.

If possible please donate: BTC 1QA5fum5AyXvWzdVCkQzUNvw3Ef15fHRaR


Category:TV > HEVC/x265
Lang:English  English
Total Size:1.44 GB
Info Hash:1f9d200481af9469677eee27c28508935847394e
Added By:UTR
Date Added:25-02-2019 15:09:08

Files

File List: 
 File Size
True.Detective.S03E08.1080p.AMZN.WEB-DL.x265.10bit.EAC3.6.0-Qman[UTR].mkv1.44 GB



Comments

There are currently no comments. Be the first one to write something !