0 shazam 2019 spider man into the spider verse 2018 game of thrones s08e06 escape room 2019 Billions avengers infinity war 2018 avengers endgame marvels agents of shield s06e02 etrg yts dumbo 2019 doom patrol john wick chapter 3 – parabellum 2019 cold pursuit 2019 game of thrones s08e05 pet sematary 2019 long shot 2019 The Big Bang Theory s12e23 the big bang theory s12e24 tushy 18.12 1080p.mp4-ktr chernobyl what men want 2019 the hustle 2019 ethd glass 2019 the curse of la llorona 2019 how to train your dragon the hidden world 2019 uglydolls 2019 the upside 2019 alita battle angel 2019 breakthrough 2019 saturday night live john wick chapter 2 2017 brightburn 2019 the intruder 2019 2.0 (2018) john wick 2014 the blacklist s06e22 ettv tushyraw 1080p.mp4-ktr killing eve bumblebee 2018 game of thrones the big bang theory pokemon detective pikachu 2019 etmovies john wick 3 extremely wicked shockingly evil and vile 2019 aladdin 2019 the mule 2018 avengers endgame 2019 ddr a madea family funeral 2019 us 2019 fighting with my family 2019 the lego movie 2 the second part 2019 the prodigy 2019 UFC ufc fight night 152 motogp hellboy 2019 game of thrones s08e04 DDR Captain marvel little 2019 Big Bang Theory game of thrones s08e03 captain marvel 2019 hindi aquaman 2018 john wick evo 
Warning! Use a VPN When Downloading Torrents!
Your IP Address is 3.88.156.58. Location is United States
Your Internet Provider is tracking your torrent activity! Hide your IP ADDRESS with a VPN!
We strongly recommend using ExpressVPN to anonymize your torrenting. 30 Day Money Back Guarantee!
Try it Now!
ETTV Recommended TV Shows
Dynasty.2017.S02E21.WEB.h264-TBS[ettv] torrent
Ransom.S03E12.HDTV.x264-SVA[ettv] torrent
The.Son.S02E04.WEB.h264-TBS[ettv] torrent
Marvels.Guardians.of.the.Galaxy.S03E18.WEB.x264-TBS[ettv] torrent
Deep.State.S02E01.HDTV.x264-MTB[ettv] torrent
NCIS.Los.Angeles.S10E24.HDTV.x264-KILLERS[ettv] torrent

ETTV Recommended SD
Bardo.Blues.2017.HDRip.XviD.AC3-EVO torrent
Breakneck.2019.HDRip.XviD.AC3-EVO torrent
The.Siren.2019.HDRip.XViD-ETRG torrent
Fourth Quarter.2018.HDRip.XViD-ETRG torrent

ETTV Recommended HD
Never Grow Old 2019.BluRay.1080p.HEVC.DTS-HDMA.5.1-DDR torrent
The.Brawler.2019.1080p.NF.WEB-DL.H264-ETRG[EtHD] torrent
The Siren 2019.1080p.AMZN.HDRip.DDP.2.0-DDR torrent
They Look Like People 2015.1080p.AMZN.HDRip.DDP.2.0-DDR torrent

ETTV Recommended UHD
The Bridge on The River Kwai 1957.UHD.Blu-ray.1080.HDR.Atmos.7.1-DDR torrent
Crank 2006.UHD.BluRay.2160p.HDR.HEVC.Atmos.7.1-DDR torrent
Aquaman 2018 1080p BDrip  x265 7.1 TrueHD Atmos D0ct0rLew[SEV] torrent
Field of Dreams 1989.Multi.UHD.2160p.Blu-ray.HDR.HEVC.DTS-HDMA.5.1-DDR torrent

ETTV Recommended Cam
Brightburn 2019 HDCAM x264 AC3-ETRG torrent
The Hustle 2019 HDCAM x264 AC3 ETRG torrent
Pokemon  Detective Pikachu 2019 HDCAM x264 AC3-ETRG torrent
John Wick 3 2019 HDCAM x264 -ETRG torrent

ETTV Recommended Foreign
Mon Jaane Na.2019.1080p.WEB-DL.AVC.AAC.DDR torrent
Bumblebee.(2018).[1080p].[Dual.Audio].[Org.DD].{Hindi+Eng.6Ch}.-~{DOOMSDAY}~-. torrent
The.Painted.House.aka.Chaayam.Poosiya.Veedu.2015.1080p.NF.Malayalam.WEB-DL.H264-ETRG[EtHD] torrent
Warda.2014.1080p.WEB-DL.ARABIC.ESub-ETRG[EtHD] torrent


Download Torrent "Sword Art Online - Alicization 21 (1080p WEBRip x265 HEVC 10bit AAC 2.0 the..."

IMDB Details
Description:

N/A

Genre:

N/A

Download Torrent (Magnet)
Download Torrent (File)
Seeds: 86
Leechers: 2
Completed: 1,809 
Last Checked: 10-03-2019 08:07:10


Loading...
Details
Title:Sword Art Online - Alicization 21 (1080p WEBRip x265 HEVC 10bit AAC 2.0 the...
Description:





Media Information

General
Format                                   : Matroska
Format version                           : Version 4 / Version 2
File size                                : 212 MiB
Duration                                 : 23 min 39 s
Overall bit rate                         : 1 252 kb/s
Encoded date                             : UTC 2019-03-10 01:53:53
Writing application                      : mkvmerge v31.0.0 ('Dolores In A Shoestand') 64-bit
Writing library                          : libebml v1.3.6 + libmatroska v1.4.9
Writing frontend                         : StaxRip v2.0.0.0

Video
ID                                       : 1
Format                                   : HEVC
Format/Info                              : High Efficiency Video Coding
Format profile                           : Main [email protected]@Main
Codec ID                                 : V_MPEGH/ISO/HEVC
Duration                                 : 23 min 39 s
Bit rate                                 : 1 122 kb/s
Width                                    : 1 920 pixels
Height                                   : 1 080 pixels
Display aspect ratio                     : 16:9
Frame rate mode                          : Constant
Frame rate                               : 23.976 (24000/1001) FPS
Color space                              : YUV
Chroma subsampling                       : 4:2:0
Bit depth                                : 10 bits
Bits/(Pixel*Frame)                       : 0.023
Stream size                              : 190 MiB (90%)
Writing library                          : x265 3.0_Au+8-31ab7e09a3b5:[Windows][MSVC 1920][64 bit] 10bit
Encoding settings                        : cpuid=1111039 / frame-threads=3 / numa-pools=8 / wpp / no-pmode / no-pme / no-psnr / no-ssim / log-level=2 / input-csp=1 / input-res=1920x1080 / interlace=0 / total-frames=34045 / level-idc=0 / high-tier=1 / uhd-bd=0 / ref=3 / no-allow-non-conformance / no-repeat-headers / annexb / no-aud / no-hrd / info / hash=0 / no-temporal-layers / open-gop / min-keyint=23 / keyint=250 / gop-lookahead=0 / bframes=8 / b-adapt=2 / b-pyramid / bframe-bias=0 / rc-lookahead=50 / lookahead-slices=6 / scenecut=40 / radl=0 / no-splice / no-intra-refresh / ctu=64 / min-cu-size=8 / no-rect / no-amp / max-tu-size=32 / tu-inter-depth=1 / tu-intra-depth=1 / limit-tu=0 / rdoq-level=0 / dynamic-rd=0.00 / no-ssim-rd / signhide / no-tskip / nr-intra=0 / nr-inter=0 / no-constrained-intra / strong-intra-smoothing / max-merge=2 / limit-refs=3 / no-limit-modes / me=2 / subme=4 / merange=57 / temporal-mvp / weightp / no-weightb / no-analyze-src-pics / deblock=1:1 / sao / no-sao-non-deblock / rd=3 / no-early-skip / rskip / no-fast-intra / no-tskip-fast / no-cu-lossless / no-b-intra / no-splitrd-skip / rdpenalty=0 / psy-rd=0.40 / psy-rdoq=0.00 / no-rd-refine / no-lossless / cbqpoffs=0 / crqpoffs=0 / rc=crf / crf=23.0 / qcomp=0.60 / qpstep=4 / stats-write=0 / stats-read=0 / ipratio=1.40 / pbratio=1.30 / aq-mode=3 / aq-strength=0.40 / cutree / zone-count=0 / no-strict-cbr / qg-size=32 / no-rc-grain / qpmax=69 / qpmin=0 / no-const-vbv / sar=0 / overscan=0 / videoformat=5 / range=0 / colorprim=2 / transfer=2 / colormatrix=1 / chromaloc=0 / display-window=0 / max-cll=0,0 / min-luma=0 / max-luma=1023 / log2-max-poc-lsb=8 / vui-timing-info / vui-hrd-info / slices=1 / no-opt-qp-pps / no-opt-ref-list-length-pps / no-multi-pass-opt-rps / scenecut-bias=0.05 / no-opt-cu-delta-qp / aq-motion / no-hdr / no-hdr-opt / no-dhdr10-opt / no-idr-recovery-sei / analysis-reuse-level=5 / scale-factor=0 / refine-intra=0 / refine-inter=0 / refine-mv=0 / refine-ctu-distortion=0 / no-limit-sao / ctu-info=0 / no-lowpass-dct / refine-analysis-type=0 / copy-pic=1 / max-ausize-factor=1.0 / no-dynamic-refine / no-single-sei / hevc-aq / no-svt / qp-adaptation-range=1.00
Default                                  : Yes
Forced                                   : No
Color range                              : Limited
Matrix coefficients                      : BT.709

Audio
ID                                       : 2
Format                                   : AAC
Format/Info                              : Advanced Audio Codec
Format profile                           : LC
Codec ID                                 : A_AAC
Duration                                 : 23 min 39 s
Bit rate                                 : 128 kb/s
Channel(s)                               : 2 channels
Channel positions                        : Front: L R
Sampling rate                            : 44.1 kHz
Frame rate                               : 43.066 FPS (1024 spf)
Compression mode                         : Lossy
Delay relative to video                  : 10 ms
Stream size                              : 21.7 MiB (10%)
Language                                 : Japanese
Default                                  : Yes
Forced                                   : No

Subtitle
ID                                       : 3
Format                                   : ASS
Codec ID                                 : S_TEXT/ASS
Codec ID/Info                            : Advanced Sub Station Alpha
Duration                                 : 23 min 26 s
Bit rate                                 : 122 b/s
Count of elements                        : 222
Compression mode                         : Lossless
Stream size                              : 21.0 KiB (0%)
Language                                 : English
Default                                  : Yes
Forced                                   : No




Category:Anime > Dubbed/Subbed
Lang:Japanese  Japanese
Total Size:212 MB
Info Hash:2bf29256222ffa8dd19b906547fc345526d97838
Added By:theincognito
Date Added:10-03-2019 08:07:06

Files

File List: 
 File Size
Sword.Art.Online.Alicization.21.1080p.WEBRip.x265.HEVC.10bit.AAC.2.0-theincognito[UTR].mkv212 MB



Comments

There are currently no comments. Be the first one to write something !