avengers endgame 2019 hustlers 2019 ettv ethd Pandora s01e10 angel has fallen 2019 ITA  peaky blinders s05e05 once upon a time in hollywood 2019 rambo last blood 2019 the secret life of pets 2 2019 greenleaf s04e03 spiderman far from home marvel week 2.0 (2018) dream girl  47 meters down uncaged 2019 joker 2019 spiderman etrg spider man far from home ready or not 2019 fast furious presents hobbs shaw 2019 kabir singh titans etmovies Titans s02e02 childs play 2019 ad astra 2019 mr mercedes s03e02 toy story 4 survivor Bachelor in Paradise fear the walking dead s05e14 Mr Mercedes mayans the lion king 2019 0 Anna  toy story 4 2019 evo ballers s05e04 anna 2019 dark phoenix 2019 anal mayans mc s02e03 xxx 萝莉 pandora godzilla king of the monsters 2019 scary stories to tell in the dark 2019 proper john wick chapter 3 – parabellum 2019 aladdin 2019 men in black international 2019 love hip hop hollywood s06e07 ma 2019 HINDI far from home good boys 2019 bachelor in paradise s06e13 Peaky blinders spider man far from home 2019 it chapter two 2019 Crawl 2019 yesterday 2019 yts wwe 幼女 ddr power s06e04 
Warning! Use a VPN When Downloading Torrents!
Your IP Address is 18.206.48.142. Location is United States
Your Internet Provider is tracking your torrent activity! Hide your IP ADDRESS with a VPN!
We strongly recommend using ExpressVPN to anonymize your torrenting. 30 Day Money Back Guarantee!
Try it Now!
ETTV Recommended TV Shows
Pearson.S01E10.WEBRip.x264-TBS[ettv] torrent
Suits.S09E09.HDTV.x264-aAF[ettv] torrent
Deep.Water.UK.S01E06.HDTV.x264-RiVER[ettv] torrent
American.Horror.Story.S09E01.HDTV.x264-SVA[ettv] torrent

ETTV Recommended SD
Rogue.Cell.2019.HDRip.XviD.AC3-EVO torrent
Spider-Man.Far.from.Home.2019.BRRip.XViD.AC3-ETRG torrent
Deadtectives.2019.HDRip.XviD.AC3-EVO[EtMovies] torrent
Fast.and.Furious.Presents.Hobbs.and.Shaw.2019..HC.HDRip.x264.AC3-ETRG torrent

ETTV Recommended HD
Spider Man Far from Home 2019 BluRay 1080p DTS-HD MA 7.1 x264-MTeam[EtHD] torrent
No.Surrender.2018.MULTi.1080p.BluRay.x264-THREESOME[EtHD] torrent
The.Tracker.2019.1080p.BluRay.x264-SADPANDA[EtHD] torrent
Fast.and.Furious.Presents.Hobbs.and.Shaw.2019.1080p.HC.HDRip.X264.AC3-EVO[EtHD] torrent

ETTV Recommended UHD
Resident Evil Vendetta 2017.MULTi.UHD.Blu-ray.2160p.HDR.Atmos.7.1.HEVC-DDR torrent
Rough Night.2017.MULTi.UHD.Blu-ray.2160p.HDR.Atmos.7.1.HEVC-DDR torrent
Spider-Man.Far From Home 2019.UHD.2160p.WEB-Rip..HDR.DDP.5.1-DDR[EtHD] torrent
Annabelle.Comes.Home.2019.MULTi.UHD.2160p.HDR.WEB-Rip.DDP.5.1.HEVC-DDR[EtHD] torrent

ETTV Recommended Cam
It Chapter Two 2019.HDCAM.x264.AC3-ETRG torrent
Downton Abbey 2019 720p HDCAM-GETB8 torrent
Hustlers 2019 HDCAM x264 AC3-ETRG torrent
Rambo Last Blood 2019 720p NEW HDCAM-GETB8 torrent

ETTV Recommended Foreign
Back Street Girls Gokudols The Movie 2019 720p BluRay x264 Ganool torrent
Kabir.Singh.2019.Hindi.HDRip..x264.AC3-ETRG torrent
Fast & Furious - Hobbs & Shaw (2019)[720p HC HDRip - HQ Line Auds - [Tamil + Telugu + Hin + Eng] - x264 - 1GB] torrent
Long Shot (2019) BRRip 720p [Hindi-Dub] x264 1XBET - KatmovieHD torrent


Download Torrent "Holmes.and.Watson.2018.1080p.WEB-DL.x265.HEVCBay"

IMDB Details
Description:

N/A

Genre:

N/A

Download Torrent (Magnet)
Download Torrent (File)
Seeds: 519
Leechers: 81
Completed: 2,589 
Last Checked: 13-03-2019 04:30:01


Loading...
Details
Title:Holmes.and.Watson.2018.1080p.WEB-DL.x265.HEVCBay
Description:
hevcbay.com

General
Unique ID                                : 12311717564097497864120059913840019379 (0x943268A995A09BD954318898B52C7B3)
Complete name                            : Holmes.and.Watson.2018.1080p.WEB-DL.x265.HEVCBay.com.mkv
Format                                   : Matroska
Format version                           : Version 4
File size                                : 544 MiB
Duration                                 : 1 h 29 min
Overall bit rate                         : 846 kb/s
Movie name                               : Holmes.and.Watson.2018.1080p.WEB-DL.x265.HEVCBay.com.mkv
Encoded date                             : UTC 2019-03-12 14:28:33
Writing application                      : hevcbay
Writing library                          : hevcbay.com / Lavf58.26.101
Comment                                  : Encoded by hevcbay.com
ENCODED-BY                               : hevcbay.com

Video
ID                                       : 1
Format                                   : HEVC
Format/Info                              : High Efficiency Video Coding
Format profile                           : [email protected]@Main
Codec ID                                 : V_MPEGH/ISO/HEVC
Duration                                 : 1 h 29 min
Bit rate                                 : 792 kb/s
Width                                    : 1 920 pixels
Height                                   : 796 pixels
Display aspect ratio                     : 2.40:1
Frame rate mode                          : Constant
Frame rate                               : 23.976 (24000/1001) FPS
Color space                              : YUV
Chroma subsampling                       : 4:2:0
Bit depth                                : 8 bits
Bits/(Pixel*Frame)                       : 0.022
Stream size                              : 509 MiB (94%)
Title                                    : Holmes.and.Watson.2018.1080p.WEB-DL.DD5.1.H264-FGT
Writing library                          : Lavc58.47.103 libx265
Language                                 : English
Default                                  : Yes
Forced                                   : No
Color range                              : Limited

Audio
ID                                       : 2
Format                                   : AAC LC SBR PS
Format/Info                              : Advanced Audio Codec Low Complexity with Spectral Band Replication and Parametric Stereo
Commercial name                          : HE-AACv2
Format settings                          : NBC
Codec ID                                 : A_AAC-29
Duration                                 : 1 h 29 min
Bit rate                                 : 52.5 kb/s
Channel(s)                               : 2 channels
Channel layout                           : C
Sampling rate                            : 48.0 kHz
Frame rate                               : 23.438 FPS (2048 SPF)
Compression mode                         : Lossy
Delay relative to video                  : -148 ms
Stream size                              : 33.7 MiB (6%)
Writing library                          : Lavc58.47.103 libfdk_aac
Language                                 : English
Default                                  : Yes
Forced                                   : No





Category:Movies > HEVC/x265
Lang:English  English
Total Size:544 MB
Info Hash:6dd2d1ebb96b3f52aa1622b6fb4f94e7c1a32dcb
Added By:g3m696
Date Added:13-03-2019 04:29:56

Files

File List: 
 File Size
Holmes.and.Watson.2018.1080p.WEB-DL.x265.HEVCBay.com.mkv544 MB



Loading...
Comments

There are currently no comments. Be the first one to write something !