kgf sarkar Manikarnika star trek discovery thakrey Xxx kedarnath thackeray malayalam the accidental prime minister supernatural evo aquaman telugu odiyan the flash why cheat india great british bake off s09e10 vikings tushy 18.12 1080p.mp4-ktr charlie chaplin 2 1080P Hindi mirzapur ettv mr majnu the grand tour 2018 ita Adanga Maru Tin Star etmovies dtone uri EVO malayalam 2018 movies AQUAMAN ita Bumblebee ethd ITA zero etrg venom f2 1080p 2018 maari 2 Game Of Thrones viswasam TamilRockers Kannada simmba Kannada ddr simbha tushyraw 1080p.mp4-ktr mortal engines simba petta DTOne uri the surgical strike kung fu the legend Young justice tamil robot 2.0 it brazzers it 2017 2.0 thakre Njan Prakashan glass fgt bohemian rhapsody Star Trek Discovery S02E02 
Warning! Use a VPN When Downloading Torrents!
Your IP Address is 18.232.147.215. Location is United States
Your Internet Provider is tracking your torrent activity! Hide your IP ADDRESS with a VPN!
We strongly recommend using ExpressVPN to anonymize your torrenting. 30 Day Money Back Guarantee!
Try it Now!
ETTV Recommended TV Shows
The.Flash.2014.S05E19.HDTV.x264-LucidTV[ettv] torrent
Cobra.Kai.S02.720p.WEBRip.x264-PBS[ettv] torrent
SEAL.Team.S02E19.HDTV.x264-LucidTV[ettv] torrent
Chicago.Fire.S07E19.HDTV.x264-LucidTV[ettv] torrent
Riverdale.US.S03E19.HDTV.x264-LucidTV[ettv] torrent
Whiskey.Cavalier.S01E09.HDTV.x264-KILLERS[ettv] torrent

ETTV Recommended SD
Happy.Death.Day.2U.2019.HDRip.XviD.AC3-EVO torrent
I.Spit.on.Your.Grave.Deja.Vu.2019.BDRip.XViD.AC3-ETRG torrent
Backdraft.2.2019.HDRip.XViD-ETRG torrent
What.Men.Want.2019.HDRip.XViD-ETRG torrent

ETTV Recommended HD
A Common Man AKA Death Watch 2012.1080p.BluRay.HEVC.DTS-HDMA.5.1-DDR torrent
Destroyer.2018.BluRay.1080p.HEVC.DTS-HD.MA.5.1-DDR torrent
I Spit On Your Grave - Deja vu 2019.Blu-ray.1080p.HEVC.DTS-HDMA.5.1-DDR torrent
Happy.Death.Day.2U.2019.1080p.WEB-DL.H264.AC3-EVO[EtHD] torrent

ETTV Recommended UHD
The.Karate.Kid.1984.Multi.UHD.Blu-ray.2160p.HDR.HEVC.Atmos.7.1-DDR torrent
Star Wars Episode II Attack of the Clones (2002) x 1600 (2160p) SDR 5.1 x265 10bit Phun Psyz torrent
The Mayflower Voyagers 1988.2160p.UHD.BluRay.HDR.HEVC.DTS-HD.MA.5.1-DDR torrent
Miss Bala 2019.MULTI.2160p.HDR.UHDRip.DTS-HD.MA.5.1-DDR torrent

ETTV Recommended Cam
Hellboy.2019.HDCAM.v2.x264.AC3-ETRG torrent
The.Curse.of.La.Llorona.2019.HDCAM.x264.AC3-ETRG torrent
Captain.Marvel.2019.HDTC.x264 AC3-ETRG torrent
Avengers Endgame 2019 HDCAM x264 AC3-ETRG torrent

ETTV Recommended Foreign
Arrest Letter.2017.1080p.WebDL.ARABIC.AVC.DD.2.0.ESub-ETRG[EtHD] torrent
Mission.Impossible.Fallout.(2018).[IMAX.1080p].[Dual.Audio].[Org.BD].{Hindi+Eng.6Ch}.-~{DOOMSDAY}~-. torrent
Force.2011.1080p.WEB-DL.AVC.AAC.ESub.DDR torrent
OK Jaanu.2017.1080p.WEB-DL.AVC.AAC.ESub.DDR torrent


Download Torrent "Ponyo (2008) 1080p BDRip x265 LPCM 5.1 - Goki [SEV]"

IMDB Details
Description:

A five-year-old boy develops a relationship with Ponyo, a young goldfish princess who longs to become a human after falling in love with him.

Genre:

Animation, Adventure, Comedy, Family, Fantasy

Download Torrent (Magnet)
Download Torrent (File)
Seeds: 21
Leechers: 29
Completed: 47 
Last Checked: 09-04-2019 06:16:58


Loading...
Details
Title:Ponyo (2008) 1080p BDRip x265 LPCM 5.1 - Goki [SEV]
Description:




Screenshots





Media Information

Unique ID                                : 333284975115524444400997551561773860496 (0xFABC59F2A8BC187143E8F793626AC690)
Complete name                            : Ponyo (2008) 1080p BDRip x265 LPCM 5.1 - Goki [SEV].mkv
Format                                   : Matroska
Format version                           : Version 4
File size                                : 12.6 GiB
Duration                                 : 1 h 42 min
Overall bit rate mode                    : Variable
Overall bit rate                         : 17.6 Mb/s
Movie name                               : Ponyo (2008) 1080p BDRip x265 LPCM 5.1 - Goki [SEV]
Encoded date                             : UTC 2019-04-08 22:56:34
Writing application                      : mkvmerge v28.2.0 ('The Awakening') 64-bit
Writing library                          : libebml v1.3.6 + libmatroska v1.4.9

Video
ID                                       : 1
Format                                   : HEVC
Format/Info                              : High Efficiency Video Coding
Format profile                           : Main [email protected]@Main
Codec ID                                 : V_MPEGH/ISO/HEVC
Duration                                 : 1 h 42 min
Bit rate                                 : 8 236 kb/s
Width                                    : 1 920 pixels
Height                                   : 1 080 pixels
Display aspect ratio                     : 16:9
Frame rate mode                          : Constant
Frame rate                               : 23.976 (24000/1001) FPS
Color space                              : YUV
Chroma subsampling                       : 4:2:0
Bit depth                                : 10 bits
Bits/(Pixel*Frame)                       : 0.166
Stream size                              : 5.88 GiB (47%)
Writing library                          : x265 2.9+8-27d8424c799d:[Windows][MSVC 1915][64 bit] 10bit
Encoding settings                        : cpuid=1111039 / frame-threads=2 / numa-pools=4 / wpp / no-pmode / no-pme / no-psnr / no-ssim / log-level=2 / input-csp=1 / input-res=1920x1080 / interlace=0 / total-frames=0 / level-idc=0 / high-tier=1 / uhd-bd=0 / ref=4 / no-allow-non-conformance / no-repeat-headers / annexb / no-aud / no-hrd / info / hash=0 / no-temporal-layers / open-gop / min-keyint=23 / keyint=250 / gop-lookahead=0 / bframes=8 / b-adapt=2 / b-pyramid / bframe-bias=0 / rc-lookahead=100 / lookahead-slices=4 / scenecut=40 / radl=0 / no-intra-refresh / ctu=64 / min-cu-size=8 / no-rect / no-amp / max-tu-size=32 / tu-inter-depth=2 / tu-intra-depth=2 / limit-tu=4 / rdoq-level=2 / dynamic-rd=0.00 / no-ssim-rd / signhide / no-tskip / nr-intra=0 / nr-inter=0 / no-constrained-intra / no-strong-intra-smoothing / max-merge=3 / limit-refs=2 / limit-modes / me=3 / subme=5 / merange=57 / temporal-mvp / weightp / weightb / no-analyze-src-pics / deblock=0:0 / sao / no-sao-non-deblock / rd=6 / no-early-skip / rskip / no-fast-intra / no-tskip-fast / no-cu-lossless / b-intra / no-splitrd-skip / rdpenalty=0 / psy-rd=1.30 / psy-rdoq=2.00 / no-rd-refine / no-lossless / cbqpoffs=0 / crqpoffs=0 / rc=crf / crf=17.0 / qcomp=0.60 / qpstep=4 / stats-write=0 / stats-read=0 / ipratio=1.40 / pbratio=1.30 / aq-mode=2 / aq-strength=1.10 / cutree / zone-count=0 / no-strict-cbr / qg-size=32 / no-rc-grain / qpmax=69 / qpmin=0 / no-const-vbv / sar=1 / overscan=0 / videoformat=5 / range=0 / colorprim=2 / transfer=2 / colormatrix=2 / chromaloc=0 / display-window=0 / max-cll=0,0 / min-luma=0 / max-luma=1023 / log2-max-poc-lsb=8 / vui-timing-info / vui-hrd-info / slices=1 / no-opt-qp-pps / no-opt-ref-list-length-pps / no-multi-pass-opt-rps / scenecut-bias=0.05 / no-opt-cu-delta-qp / no-aq-motion / no-hdr / no-hdr-opt / no-dhdr10-opt / no-idr-recovery-sei / analysis-reuse-level=5 / scale-factor=0 / refine-intra=0 / refine-inter=0 / refine-mv=0 / no-limit-sao / ctu-info=0 / no-lowpass-dct / refine-mv-type=0 / copy-pic=1 / max-ausize-factor=1.0 / no-dynamic-refine / no-single-sei
Language                                 : Japanese
Default                                  : Yes
Forced                                   : No

Audio #1
ID                                       : 2
Format                                   : PCM
Format settings                          : Little / Signed
Codec ID                                 : A_PCM/INT/LIT
Duration                                 : 1 h 42 min
Bit rate mode                            : Constant
Bit rate                                 : 4 608 kb/s
Channel(s)                               : 6 channels
Sampling rate                            : 48.0 kHz
Frame rate                               : 32.000 FPS (1500 SPF)
Bit depth                                : 16 bits
Delay relative to video                  : 13 ms
Stream size                              : 3.29 GiB (26%)
Title                                    : LPCM Audio / 5.1 / 48 kHz / 4,608 kbps / 16-bit
Language                                 : English
Default                                  : Yes
Forced                                   : No

Audio #2
ID                                       : 3
Format                                   : DTS ES XXCH XLL
Format/Info                              : Digital Theater Systems
Commercial name                          : DTS-HD Master Audio
Codec ID                                 : A_DTS
Duration                                 : 1 h 40 min
Bit rate mode                            : Variable
Bit rate                                 : 4 620 kb/s
Channel(s)                               : 7 channels
Channel layout                           : C L R Ls Rs LFE Cb
Sampling rate                            : 48.0 kHz
Frame rate                               : 93.750 FPS (512 SPF)
Bit depth                                : 24 bits
Compression mode                         : Lossless
Delay relative to video                  : 9 ms
Stream size                              : 3.26 GiB (26%)
Title                                    : DTS-HD Master Audio / 6.1 / 48 kHz / 4,558 kbps / 24-bit (DTS Core: 6.1-ES / 48 kHz / 1509 kbps / 24-bit)
Language                                 : Japanese
Default                                  : No
Forced                                   : No

Text #1
ID                                       : 4
Format                                   : PGS
Codec ID                                 : S_HDMV/PGS
Codec ID/Info                            : Picture based subtitle format used on BDs/HD-DVDs
Duration                                 : 1 h 35 min
Bit rate                                 : 11.9 kb/s
Count of elements                        : 1595
Stream size                              : 8.17 MiB (0%)
Language                                 : English
Default                                  : No
Forced                                   : No

Text #2
ID                                       : 5
Format                                   : PGS
Codec ID                                 : S_HDMV/PGS
Codec ID/Info                            : Picture based subtitle format used on BDs/HD-DVDs
Duration                                 : 1 h 40 min
Bit rate                                 : 20.4 kb/s
Count of elements                        : 1651
Stream size                              : 14.7 MiB (0%)
Language                                 : English
Default                                  : No
Forced                                   : No

Text #3
ID                                       : 6
Format                                   : PGS
Codec ID                                 : S_HDMV/PGS
Codec ID/Info                            : Picture based subtitle format used on BDs/HD-DVDs
Duration                                 : 1 h 35 min
Bit rate                                 : 19.7 kb/s
Count of elements                        : 2133
Stream size                              : 13.5 MiB (0%)
Language                                 : Japanese
Default                                  : No
Forced                                   : No

Text #4
ID                                       : 7
Format                                   : PGS
Codec ID                                 : S_HDMV/PGS
Codec ID/Info                            : Picture based subtitle format used on BDs/HD-DVDs
Duration                                 : 1 h 36 min
Bit rate                                 : 25.3 kb/s
Count of elements                        : 1662
Stream size                              : 17.4 MiB (0%)
Language                                 : French
Default                                  : No
Forced                                   : No

Text #5
ID                                       : 8
Format                                   : PGS
Codec ID                                 : S_HDMV/PGS
Codec ID/Info                            : Picture based subtitle format used on BDs/HD-DVDs
Duration                                 : 1 h 36 min
Bit rate                                 : 29.3 kb/s
Count of elements                        : 1682
Stream size                              : 20.2 MiB (0%)
Language                                 : Italian
Default                                  : No
Forced                                   : No

Text #6
ID                                       : 9
Format                                   : PGS
Codec ID                                 : S_HDMV/PGS
Codec ID/Info                            : Picture based subtitle format used on BDs/HD-DVDs
Duration                                 : 1 h 36 min
Bit rate                                 : 23.4 kb/s
Count of elements                        : 1686
Stream size                              : 16.1 MiB (0%)
Language                                 : Spanish
Default                                  : No
Forced                                   : No

Text #7
ID                                       : 10
Format                                   : PGS
Codec ID                                 : S_HDMV/PGS
Codec ID/Info                            : Picture based subtitle format used on BDs/HD-DVDs
Duration                                 : 1 h 36 min
Bit rate                                 : 16.4 kb/s
Count of elements                        : 1670
Stream size                              : 11.3 MiB (0%)
Language                                 : Korean
Default                                  : No
Forced                                   : No

Text #8
ID                                       : 11
Format                                   : PGS
Codec ID                                 : S_HDMV/PGS
Codec ID/Info                            : Picture based subtitle format used on BDs/HD-DVDs
Duration                                 : 1 h 36 min
Bit rate                                 : 19.1 kb/s
Count of elements                        : 1804
Stream size                              : 13.1 MiB (0%)
Language                                 : Chinese
Default                                  : No
Forced                                   : No

Text #9
ID                                       : 12
Format                                   : PGS
Codec ID                                 : S_HDMV/PGS
Codec ID/Info                            : Picture based subtitle format used on BDs/HD-DVDs
Duration                                 : 1 h 36 min
Bit rate                                 : 17.8 kb/s
Count of elements                        : 1670
Stream size                              : 12.2 MiB (0%)
Language                                 : Chinese
Default                                  : No
Forced                                   : No

Menu
00:00:00.000                             : en:Chapter 1
00:04:34.983                             : en:Chapter 2
00:09:58.305                             : en:Chapter 3
00:16:14.098                             : en:Chapter 4
00:21:02.094                             : en:Chapter 5
00:27:07.584                             : en:Chapter 6
00:35:21.369                             : en:Chapter 7
00:41:21.770                             : en:Chapter 8
00:48:34.202                             : en:Chapter 9
00:55:21.651                             : en:Chapter 10
01:02:00.675                             : en:Chapter 11
01:08:53.170                             : en:Chapter 12
01:12:58.832                             : en:Chapter 13
01:19:22.924                             : en:Chapter 14
01:24:30.857                             : en:Chapter 15
01:29:08.885                             : en:Chapter 16
01:34:54.772                             : en:Chapter 17
01:39:09.902                             : en:Chapter 18
01:42:13.085                             : en:Chapter 19

Source Information

Unique ID                                : 228990429057397436556541365948828020494 (0xAC45F3D2735EA3A5B936DB309C12EF0E)
Complete name                            : Ponyo.on.the.Cliff.by.the.Sea.2008.1080p.JPN.Bluray.Remux.AVC.DTS-MA-BluDragon.mkv
Format                                   : Matroska
Format version                           : Version 4
File size                                : 32.8 GiB
Duration                                 : 1 h 42 min
Overall bit rate mode                    : Variable
Overall bit rate                         : 45.9 Mb/s
Encoded date                             : UTC 2014-07-11 23:43:48
Writing application                      : mkvmerge v6.8.0 ('Theme for Great Cities') 64bit built on Mar  2 2014 21:34:26
Writing library                          : libebml v1.3.0 + libmatroska v1.4.1

Video
ID                                       : 1
Format                                   : AVC
Format/Info                              : Advanced Video Codec
Format profile                           : [email protected]
Format settings                          : CABAC / 2 Ref Frames
Format settings, CABAC                   : Yes
Format settings, RefFrames               : 2 frames
Codec ID                                 : V_MPEG4/ISO/AVC
Duration                                 : 1 h 42 min
Width                                    : 1 920 pixels
Height                                   : 1 080 pixels
Display aspect ratio                     : 16:9
Frame rate mode                          : Constant
Frame rate                               : 23.976 (24000/1001) FPS
Color space                              : YUV
Chroma subsampling                       : 4:2:0
Bit depth                                : 8 bits
Scan type                                : Progressive
Title                                    : Gake no ue no Ponyo aka Ponyo on the Cliff by the Sea 2008 1080p JPN Bluray Remux AVC DTS-MA - BluDragon
Language                                 : Japanese
Default                                  : Yes
Forced                                   : No

.........................................................................................................................................

We have no issue with individuals posting or re-uploading our torrents on a platform we aren't on. However, if this is something you'd like to do, please do so in a 'as-is' format. We ask that you do not create a new torrent, include all descriptions you see above including the SEV logo, tags, notes and screenshots. If you'd like to become a permanent poster on a website we don't post to, feel free to get in contact with a Sublime Encoded Video member.


We are recruiting/training new members for SEV & seedbox providers as well as people to help out with subtitles.
As you already know, we deliver quality, so you know the standard.
If you're interested, feel free to contact any of the team members.

Category:Anime > Dubbed/Subbed
Lang:English  English
Total Size:12.56 GB
Info Hash:b228e0fc6f805ed6df218f16b2bf40766c668ba6
Added By:Goki
Date Added:09-04-2019 06:16:54

Files

File List: 
 File Size
Ponyo (2008) 1080p BDRip x265 LPCM 5.1 - Goki [SEV]-banner.jpg171.03 kB
Ponyo (2008) 1080p BDRip x265 LPCM 5.1 - Goki [SEV]-clearart.png281.27 kB
Ponyo (2008) 1080p BDRip x265 LPCM 5.1 - Goki [SEV]-clearlogo.png47.90 kB
Ponyo (2008) 1080p BDRip x265 LPCM 5.1 - Goki [SEV]-disc.png383.34 kB
Ponyo (2008) 1080p BDRip x265 LPCM 5.1 - Goki [SEV]-fanart.jpg883.12 kB
Ponyo (2008) 1080p BDRip x265 LPCM 5.1 - Goki [SEV]-logo.png47.90 kB
Ponyo (2008) 1080p BDRip x265 LPCM 5.1 - Goki [SEV]-poster.jpg27.79 kB
Ponyo (2008) 1080p BDRip x265 LPCM 5.1 - Goki [SEV]-thumb.jpg348.17 kB
Ponyo (2008) 1080p BDRip x265 LPCM 5.1 - Goki [SEV].mkv12.56 GB
Ponyo (2008) 1080p BDRip x265 LPCM 5.1 - Goki [SEV].nfo7.07 kB



Comments

There are currently no comments. Be the first one to write something !