the secret life of pets 2 2019 2.0 (2018) the dead dont die 2019 spider man into the spider verse 2018 alita battle angel 2019 the mustang 2019 the upside 2019 john wick 2014 us 2019 the hustle 2019 i am mother 2019 yts John Wick etrg once upon a time in hollywood 2019 swamp thing cold pursuit 2019 rocketman 2019 brightburn 2019 captain marvel long shot 2019 pokemon detective pikachu 2019 jessica jones deadwood the movie 2019 marvels agents of shield s06e05 hotel mumbai 2019 John wick 3 avengers endgame 2019 chernobyl s01e01 five feet apart 2019 the kid 2019 john wick chapter 2 2017 avengers endgame aladdin 2019 jett s01e01 DUMBO the intruder 2019 pet sematary 2019 fighting with my family 2019 wonder park 2019 shaft 2019 aquaman 2018 late night 2019 godzilla king of the monsters 2019 the poison rose 2019 ettv ma 2019 dark phoenix 2019 chernobyl queen of the south s04e02 ethd 0 hindi men in black international 2019 Too Old to Die Young a madea family funeral 2019 hellboy 2019 shazam 2019 murder mystery 2019 dumbo 2019 captain marvel 2019 etmovies little 2019 evo bellator ddr swamp thing s01e03 captive state 2019 the curse of la llorona 2019 john wick chapter 3 – parabellum 2019 bellator 222 glass 2019 
Warning! Use a VPN When Downloading Torrents!
Your IP Address is 54.91.4.56. Location is United States
Your Internet Provider is tracking your torrent activity! Hide your IP ADDRESS with a VPN!
We strongly recommend using ExpressVPN to anonymize your torrenting. 30 Day Money Back Guarantee!
Try it Now!
ETTV Recommended TV Shows
The.Spanish.Princess.S01E07.WEB.x264-PHOENiX[TGx] torrent
The.Chi.S02E10.WEB.H264-MEMENTO[ettv] torrent
Jamestown.S03E08.HDTV.x264-MTB[ettv] torrent
The.Son.S02E08.WEB.h264-TBS[ettv] torrent

ETTV Recommended SD
Daughter Of The Wolf.2019.HDRip.XviD.AC3-EVO torrent
In.Full.Bloom.2019.BDRip.XviD.AC3-EVO torrent
City.of.Lies.2019.BDRip.XviD.AC3-EVO torrent
Clinton.Road.2019.HDRip.XViD-ETRG torrent

ETTV Recommended HD
 Dumbo 2019 1080p BRRip X264 AC-3 - 5,1 KINGDOM-RG torrent
American.Beauty.1999.1080p.NF.WEB-DL.H264-ETRG[EtHD] torrent
City of Lies (2019) (1080p BluRay x265 HEVC 10bit DTS 5.1 Qman) [UTR] torrent
Self.less.2015.BDRip.1080p.x264.DTS.DD5.1.Gerald torrent

ETTV Recommended UHD
Thor Ragnarok (2017) (2160p BluRay x265 HEVC 10bit AAC 7.1 Joy) [UTR] torrent
Godzilla.1998.4K.HDR.2160p.BDRip Ita Eng x265-NAHOM torrent
The.Mummy.2017.4K.HDR.2160p.BDRip Ita Eng x265-NAHOM torrent
Us.2019.2160p.BluRay.x265.10bit.HDR.DTS-HD.MA.TrueHD.7.1.Atmos-SWTYBLZ torrent

ETTV Recommended Cam
Dark.Phoenix.2019.HDTC.XViD.AC3-ETRG torrent
Godzilla King of the Monsters 2019 NEW HDCAM x264 AC3-ETRG torrent
Men in Black International 2019 HDCAM x264 AC3-ETRG torrent
Shaft.2019.HDTC.x264.AC3-ETRG torrent

ETTV Recommended Foreign
Jersey.2019.1080p.WEB-DL.AVC.AAC.ESub.DDR torrent
100.2019.1080p.WEB-DL.AVC.AC3 5.1.ESub.DDR torrent
I Nipoti Di Zorro (1968), [DTTrip - H264 - Ita Ac3] HDTVrip 1080i - by Lg Studios  [TNTVillage] MIRCrew torrent
Luckee.2019.720p.NF.Marathi.WEB-DL.H264-ETRG[EtHD] torrent


Download Torrent "Ponyo (2008) 1080p BDRip x265 AAC 5.1 - Goki [SEV]"

IMDB Details
Description:

A five-year-old boy develops a relationship with Ponyo, a young goldfish princess who longs to become a human after falling in love with him.

Genre:

Animation, Adventure, Comedy, Family, Fantasy

Download Torrent (Magnet)
Download Torrent (File)
Seeds: 49
Leechers: 14
Completed: 148 
Last Checked: 09-04-2019 06:17:08


Loading...
Details
Title:Ponyo (2008) 1080p BDRip x265 AAC 5.1 - Goki [SEV]
Description:




Screenshots





Media Information

Unique ID                                : 267543737362994026588054323983403175355 (0xC9470CAD7A67C18D85CD42308D77CDBB)
Complete name                            : Ponyo (2008) 1080p BDRip x265 AAC 5.1 - Goki [SEV].mkv
Format                                   : Matroska
Format version                           : Version 4
File size                                : 6.73 GiB
Duration                                 : 1 h 42 min
Overall bit rate                         : 9 426 kb/s
Movie name                               : Ponyo (2008) 1080p BDRip x265 AAC 5.1 - Goki [SEV]
Encoded date                             : UTC 2019-04-09 03:55:18
Writing application                      : mkvmerge v28.2.0 ('The Awakening') 64-bit
Writing library                          : libebml v1.3.6 + libmatroska v1.4.9

Video
ID                                       : 1
Format                                   : HEVC
Format/Info                              : High Efficiency Video Coding
Format profile                           : Main [email protected]@Main
Codec ID                                 : V_MPEGH/ISO/HEVC
Duration                                 : 1 h 42 min
Bit rate                                 : 8 236 kb/s
Width                                    : 1 920 pixels
Height                                   : 1 080 pixels
Display aspect ratio                     : 16:9
Frame rate mode                          : Constant
Frame rate                               : 23.976 (24000/1001) FPS
Color space                              : YUV
Chroma subsampling                       : 4:2:0
Bit depth                                : 10 bits
Bits/(Pixel*Frame)                       : 0.166
Stream size                              : 5.88 GiB (87%)
Writing library                          : x265 2.9+8-27d8424c799d:[Windows][MSVC 1915][64 bit] 10bit
Encoding settings                        : cpuid=1111039 / frame-threads=2 / numa-pools=4 / wpp / no-pmode / no-pme / no-psnr / no-ssim / log-level=2 / input-csp=1 / input-res=1920x1080 / interlace=0 / total-frames=0 / level-idc=0 / high-tier=1 / uhd-bd=0 / ref=4 / no-allow-non-conformance / no-repeat-headers / annexb / no-aud / no-hrd / info / hash=0 / no-temporal-layers / open-gop / min-keyint=23 / keyint=250 / gop-lookahead=0 / bframes=8 / b-adapt=2 / b-pyramid / bframe-bias=0 / rc-lookahead=100 / lookahead-slices=4 / scenecut=40 / radl=0 / no-intra-refresh / ctu=64 / min-cu-size=8 / no-rect / no-amp / max-tu-size=32 / tu-inter-depth=2 / tu-intra-depth=2 / limit-tu=4 / rdoq-level=2 / dynamic-rd=0.00 / no-ssim-rd / signhide / no-tskip / nr-intra=0 / nr-inter=0 / no-constrained-intra / no-strong-intra-smoothing / max-merge=3 / limit-refs=2 / limit-modes / me=3 / subme=5 / merange=57 / temporal-mvp / weightp / weightb / no-analyze-src-pics / deblock=0:0 / sao / no-sao-non-deblock / rd=6 / no-early-skip / rskip / no-fast-intra / no-tskip-fast / no-cu-lossless / b-intra / no-splitrd-skip / rdpenalty=0 / psy-rd=1.30 / psy-rdoq=2.00 / no-rd-refine / no-lossless / cbqpoffs=0 / crqpoffs=0 / rc=crf / crf=17.0 / qcomp=0.60 / qpstep=4 / stats-write=0 / stats-read=0 / ipratio=1.40 / pbratio=1.30 / aq-mode=2 / aq-strength=1.10 / cutree / zone-count=0 / no-strict-cbr / qg-size=32 / no-rc-grain / qpmax=69 / qpmin=0 / no-const-vbv / sar=1 / overscan=0 / videoformat=5 / range=0 / colorprim=2 / transfer=2 / colormatrix=2 / chromaloc=0 / display-window=0 / max-cll=0,0 / min-luma=0 / max-luma=1023 / log2-max-poc-lsb=8 / vui-timing-info / vui-hrd-info / slices=1 / no-opt-qp-pps / no-opt-ref-list-length-pps / no-multi-pass-opt-rps / scenecut-bias=0.05 / no-opt-cu-delta-qp / no-aq-motion / no-hdr / no-hdr-opt / no-dhdr10-opt / no-idr-recovery-sei / analysis-reuse-level=5 / scale-factor=0 / refine-intra=0 / refine-inter=0 / refine-mv=0 / no-limit-sao / ctu-info=0 / no-lowpass-dct / refine-mv-type=0 / copy-pic=1 / max-ausize-factor=1.0 / no-dynamic-refine / no-single-sei
Language                                 : Japanese
Default                                  : Yes
Forced                                   : No

Audio #1
ID                                       : 2
Format                                   : AAC LC
Format/Info                              : Advanced Audio Codec Low Complexity
Codec ID                                 : A_AAC-2
Duration                                 : 1 h 42 min
Bit rate                                 : 448 kb/s
Channel(s)                               : 6 channels
Channel layout                           : C L R Ls Rs LFE
Sampling rate                            : 48.0 kHz
Frame rate                               : 46.875 FPS (1024 SPF)
Compression mode                         : Lossy
Delay relative to video                  : 9 ms
Stream size                              : 328 MiB (5%)
Title                                    : AAC 5.1
Language                                 : English
Default                                  : Yes
Forced                                   : No

Audio #2
ID                                       : 3
Format                                   : AAC LC
Format/Info                              : Advanced Audio Codec Low Complexity
Codec ID                                 : A_AAC-2
Duration                                 : 1 h 40 min
Bit rate                                 : 576 kb/s
Channel(s)                               : 7 channels
Channel layout                           : C L R Ls Rs Cb LFE
Sampling rate                            : 48.0 kHz
Frame rate                               : 46.875 FPS (1024 SPF)
Compression mode                         : Lossy
Delay relative to video                  : 20 ms
Stream size                              : 416 MiB (6%)
Title                                    : AAC 6.1
Language                                 : Japanese
Default                                  : No
Forced                                   : No

Text #1
ID                                       : 4
Format                                   : PGS
Codec ID                                 : S_HDMV/PGS
Codec ID/Info                            : Picture based subtitle format used on BDs/HD-DVDs
Duration                                 : 1 h 35 min
Bit rate                                 : 11.9 kb/s
Count of elements                        : 1595
Stream size                              : 8.17 MiB (0%)
Language                                 : English
Default                                  : No
Forced                                   : No

Text #2
ID                                       : 5
Format                                   : PGS
Codec ID                                 : S_HDMV/PGS
Codec ID/Info                            : Picture based subtitle format used on BDs/HD-DVDs
Duration                                 : 1 h 40 min
Bit rate                                 : 20.4 kb/s
Count of elements                        : 1651
Stream size                              : 14.7 MiB (0%)
Language                                 : English
Default                                  : No
Forced                                   : No

Text #3
ID                                       : 6
Format                                   : PGS
Codec ID                                 : S_HDMV/PGS
Codec ID/Info                            : Picture based subtitle format used on BDs/HD-DVDs
Duration                                 : 1 h 35 min
Bit rate                                 : 19.7 kb/s
Count of elements                        : 2133
Stream size                              : 13.5 MiB (0%)
Language                                 : Japanese
Default                                  : No
Forced                                   : No

Text #4
ID                                       : 7
Format                                   : PGS
Codec ID                                 : S_HDMV/PGS
Codec ID/Info                            : Picture based subtitle format used on BDs/HD-DVDs
Duration                                 : 1 h 36 min
Bit rate                                 : 25.3 kb/s
Count of elements                        : 1662
Stream size                              : 17.4 MiB (0%)
Language                                 : French
Default                                  : No
Forced                                   : No

Text #5
ID                                       : 8
Format                                   : PGS
Codec ID                                 : S_HDMV/PGS
Codec ID/Info                            : Picture based subtitle format used on BDs/HD-DVDs
Duration                                 : 1 h 36 min
Bit rate                                 : 29.3 kb/s
Count of elements                        : 1682
Stream size                              : 20.2 MiB (0%)
Language                                 : Italian
Default                                  : No
Forced                                   : No

Text #6
ID                                       : 9
Format                                   : PGS
Codec ID                                 : S_HDMV/PGS
Codec ID/Info                            : Picture based subtitle format used on BDs/HD-DVDs
Duration                                 : 1 h 36 min
Bit rate                                 : 23.4 kb/s
Count of elements                        : 1686
Stream size                              : 16.1 MiB (0%)
Language                                 : Spanish
Default                                  : No
Forced                                   : No

Text #7
ID                                       : 10
Format                                   : PGS
Codec ID                                 : S_HDMV/PGS
Codec ID/Info                            : Picture based subtitle format used on BDs/HD-DVDs
Duration                                 : 1 h 36 min
Bit rate                                 : 16.4 kb/s
Count of elements                        : 1670
Stream size                              : 11.3 MiB (0%)
Language                                 : Korean
Default                                  : No
Forced                                   : No

Text #8
ID                                       : 11
Format                                   : PGS
Codec ID                                 : S_HDMV/PGS
Codec ID/Info                            : Picture based subtitle format used on BDs/HD-DVDs
Duration                                 : 1 h 36 min
Bit rate                                 : 19.1 kb/s
Count of elements                        : 1804
Stream size                              : 13.1 MiB (0%)
Language                                 : Chinese
Default                                  : No
Forced                                   : No

Text #9
ID                                       : 12
Format                                   : PGS
Codec ID                                 : S_HDMV/PGS
Codec ID/Info                            : Picture based subtitle format used on BDs/HD-DVDs
Duration                                 : 1 h 36 min
Bit rate                                 : 17.8 kb/s
Count of elements                        : 1670
Stream size                              : 12.2 MiB (0%)
Language                                 : Chinese
Default                                  : No
Forced                                   : No

Source Information

Unique ID                                : 228990429057397436556541365948828020494 (0xAC45F3D2735EA3A5B936DB309C12EF0E)
Complete name                            : Ponyo.on.the.Cliff.by.the.Sea.2008.1080p.JPN.Bluray.Remux.AVC.DTS-MA-BluDragon.mkv
Format                                   : Matroska
Format version                           : Version 4
File size                                : 32.8 GiB
Duration                                 : 1 h 42 min
Overall bit rate mode                    : Variable
Overall bit rate                         : 45.9 Mb/s
Encoded date                             : UTC 2014-07-11 23:43:48
Writing application                      : mkvmerge v6.8.0 ('Theme for Great Cities') 64bit built on Mar  2 2014 21:34:26
Writing library                          : libebml v1.3.0 + libmatroska v1.4.1

Video
ID                                       : 1
Format                                   : AVC
Format/Info                              : Advanced Video Codec
Format profile                           : [email protected]
Format settings                          : CABAC / 2 Ref Frames
Format settings, CABAC                   : Yes
Format settings, RefFrames               : 2 frames
Codec ID                                 : V_MPEG4/ISO/AVC
Duration                                 : 1 h 42 min
Width                                    : 1 920 pixels
Height                                   : 1 080 pixels
Display aspect ratio                     : 16:9
Frame rate mode                          : Constant
Frame rate                               : 23.976 (24000/1001) FPS
Color space                              : YUV
Chroma subsampling                       : 4:2:0
Bit depth                                : 8 bits
Scan type                                : Progressive
Title                                    : Gake no ue no Ponyo aka Ponyo on the Cliff by the Sea 2008 1080p JPN Bluray Remux AVC DTS-MA - BluDragon
Language                                 : Japanese
Default                                  : Yes
Forced                                   : No

.........................................................................................................................................

We have no issue with individuals posting or re-uploading our torrents on a platform we aren't on. However, if this is something you'd like to do, please do so in a 'as-is' format. We ask that you do not create a new torrent, include all descriptions you see above including the SEV logo, tags, notes and screenshots. If you'd like to become a permanent poster on a website we don't post to, feel free to get in contact with a Sublime Encoded Video member.


We are recruiting/training new members for SEV & seedbox providers as well as people to help out with subtitles.
As you already know, we deliver quality, so you know the standard.
If you're interested, feel free to contact any of the team members.

Category:Anime > Dubbed/Subbed
Lang:English  English
Total Size:6.74 GB
Info Hash:e19ac0e6398cd73c2db3fba1194b813a946b1f99
Added By:Goki
Date Added:09-04-2019 06:17:04

Files

File List: 
 File Size
Ponyo (2008) 1080p BDRip x265 AAC 5.1 - Goki [SEV]-banner.jpg171.03 kB
Ponyo (2008) 1080p BDRip x265 AAC 5.1 - Goki [SEV]-clearart.png281.27 kB
Ponyo (2008) 1080p BDRip x265 AAC 5.1 - Goki [SEV]-clearlogo.png47.90 kB
Ponyo (2008) 1080p BDRip x265 AAC 5.1 - Goki [SEV]-disc.png383.34 kB
Ponyo (2008) 1080p BDRip x265 AAC 5.1 - Goki [SEV]-fanart.jpg883.12 kB
Ponyo (2008) 1080p BDRip x265 AAC 5.1 - Goki [SEV]-logo.png47.90 kB
Ponyo (2008) 1080p BDRip x265 AAC 5.1 - Goki [SEV]-poster.jpg27.79 kB
Ponyo (2008) 1080p BDRip x265 AAC 5.1 - Goki [SEV]-thumb.jpg348.17 kB
Ponyo (2008) 1080p BDRip x265 AAC 5.1 - Goki [SEV].mkv6.73 GB
Ponyo (2008) 1080p BDRip x265 AAC 5.1 - Goki [SEV].nfo7.07 kB



Comments

There are currently no comments. Be the first one to write something !