kgf sarkar Manikarnika star trek discovery thakrey Xxx kedarnath thackeray malayalam the accidental prime minister supernatural evo aquaman telugu odiyan the flash why cheat india great british bake off s09e10 vikings tushy 18.12 1080p.mp4-ktr charlie chaplin 2 1080P Hindi mirzapur ettv mr majnu the grand tour 2018 ita Adanga Maru Tin Star etmovies dtone uri EVO malayalam 2018 movies AQUAMAN ita Bumblebee ethd ITA zero etrg venom f2 1080p 2018 maari 2 Game Of Thrones viswasam TamilRockers Kannada simmba Kannada ddr simbha tushyraw 1080p.mp4-ktr mortal engines simba petta DTOne uri the surgical strike kung fu the legend Young justice tamil robot 2.0 it brazzers it 2017 2.0 thakre Njan Prakashan glass fgt bohemian rhapsody Star Trek Discovery S02E02 
Warning! Use a VPN When Downloading Torrents!
Your IP Address is 3.84.182.112. Location is United States
Your Internet Provider is tracking your torrent activity! Hide your IP ADDRESS with a VPN!
We strongly recommend using ExpressVPN to anonymize your torrenting. 30 Day Money Back Guarantee!
Try it Now!
ETTV Recommended TV Shows
Star.Trek.Discovery.S02E14.WEBRip.x264-TBS[ettv] torrent
Gotham.S05E11.WEB.x264-TBS[ettv] torrent
Marvels.Cloak.And.Dagger.S02E04.WEB.x264-TBS[ettv] torrent
The.Orville.S02E13.WEB.x264-TBS[ettv] torrent
Bosch.S05.WEBRip.x264-SHiTSPREAD[ettv] torrent
Supernatural.S14E19.WEB.h264-TBS[ettv] torrent

ETTV Recommended SD
Miss.Bala.2019.HDRip.XViD-ETRG torrent
Avengers.Infinity.War.2018..NF.WebDL.AVC.DD.5.1-ETRG torrent
High.Life.2018.BRRip.XViD-ETRG torrent
Split .2017.NF.WebDL.AVC.DD.5.1-ETRG torrent

ETTV Recommended HD
Runnin from My Roots 2018.Blu-ray.1080p.HEVC.DTS-HDMA.5.1-DDR torrent
Scream for Me Sarajevo 2017.1080p.Blu-ray.HEVC.PCM.2.0-.DDR torrent
Bridget Jones Baby 2016.Multi.1080p.Bluray.HEVC.DTS-HDMA.5.1.[En+Hi]-DDR torrent
Close.2019.1080p.NF.WebDL.AVC.DD.5.1-ETRG torrent

ETTV Recommended UHD
Escape Room 2019.MULTI.2160p.HDR.UHDRip.HEVC.DTS-HD.MA.5.1-DDR torrent
Captain America The Winter Soldier 2014.Multi.UHD.BluRay.2160p.HDR.HEVC.Atmos.7.1-DDR torrent
Captain America Civil War 2016.Multi.UHD.BluRay.2160p.HDR.HEVC.Atmos.7.1-DDR torrent
The.Karate.Kid.1984.Multi.UHD.Blu-ray.2160p.HDR.HEVC.Atmos.7.1-DDR torrent

ETTV Recommended Cam
After 2019 720p HDCAM-1XBET torrent
Missing Link.2019.HDCAM.x264.AC3-ETRG torrent
Mia and the White Lion 2019 720p HDCAM-1XBET torrent
Hellboy.2019.HDCAM.v2.x264.AC3-ETRG torrent

ETTV Recommended Foreign
Rustom.2016.UHD.2160p.SDR.HEVC.Atmos.7.1-DDR torrent
Hostel.2011.Hindi.576p.AMZN.WeB.DL.H264.DDP.2.0.DusIcTv torrent
Kalank.(2019).1-3.pDVD.Rip.x264.AC3-DusIcTv torrent
Helicopter Eela.2018.1080p.WEB-DL.AVC.AACESub.DDR torrent


Download Torrent "One Punch Man S02E01 (1080p WEBRip x265 HEVC 10bit AAC 2.0 theincognito) [U..."

IMDB Details
Description:

N/A

Genre:

N/A

Download Torrent (Magnet)
Download Torrent (File)
Seeds: 3,891
Leechers: 338
Completed: 42,527 
Last Checked: 10-04-2019 02:52:22


Loading...
Details
Title:One Punch Man S02E01 (1080p WEBRip x265 HEVC 10bit AAC 2.0 theincognito) [U...
Description:







Media Information

General
Format                                   : Matroska
Format version                           : Version 4 / Version 2
File size                                : 177 MiB
Duration                                 : 23 min 51 s
Overall bit rate                         : 1 037 kb/s
Encoded date                             : UTC 2019-04-09 19:05:08
Writing application                      : mkvmerge v31.0.0 ('Dolores In A Shoestand') 64-bit
Writing library                          : libebml v1.3.6 + libmatroska v1.4.9
Writing frontend                         : StaxRip v2.0.0.1

Video
ID                                       : 1
Format                                   : HEVC
Format/Info                              : High Efficiency Video Coding
Format profile                           : Main [email protected]@Main
Codec ID                                 : V_MPEGH/ISO/HEVC
Duration                                 : 23 min 50 s
Bit rate                                 : 907 kb/s
Width                                    : 1 920 pixels
Height                                   : 1 080 pixels
Display aspect ratio                     : 16:9
Frame rate mode                          : Constant
Frame rate                               : 23.976 (24000/1001) FPS
Color space                              : YUV
Chroma subsampling                       : 4:2:0
Bit depth                                : 10 bits
Bits/(Pixel*Frame)                       : 0.018
Stream size                              : 155 MiB (87%)
Writing library                          : x265 3.0_Au+18-768ab38fd5fd:[Windows][MSVC 1920][64 bit] 10bit
Encoding settings                        : cpuid=1111039 / frame-threads=3 / numa-pools=8 / wpp / no-pmode / no-pme / no-psnr / no-ssim / log-level=2 / input-csp=1 / input-res=1920x1080 / interlace=0 / total-frames=34287 / level-idc=0 / high-tier=1 / uhd-bd=0 / ref=3 / no-allow-non-conformance / no-repeat-headers / annexb / no-aud / no-hrd / info / hash=0 / no-temporal-layers / open-gop / min-keyint=23 / keyint=250 / gop-lookahead=0 / bframes=8 / b-adapt=2 / b-pyramid / bframe-bias=0 / rc-lookahead=50 / lookahead-slices=6 / scenecut=40 / radl=0 / no-splice / no-intra-refresh / ctu=64 / min-cu-size=8 / no-rect / no-amp / max-tu-size=32 / tu-inter-depth=1 / tu-intra-depth=1 / limit-tu=0 / rdoq-level=0 / dynamic-rd=0.00 / no-ssim-rd / signhide / no-tskip / nr-intra=0 / nr-inter=0 / no-constrained-intra / strong-intra-smoothing / max-merge=2 / limit-refs=3 / no-limit-modes / me=2 / subme=4 / merange=57 / temporal-mvp / weightp / no-weightb / no-analyze-src-pics / deblock=1:1 / sao / no-sao-non-deblock / rd=3 / no-early-skip / rskip / no-fast-intra / no-tskip-fast / no-cu-lossless / no-b-intra / no-splitrd-skip / rdpenalty=0 / psy-rd=0.40 / psy-rdoq=0.00 / no-rd-refine / no-lossless / cbqpoffs=0 / crqpoffs=0 / rc=crf / crf=23.0 / qcomp=0.60 / qpstep=4 / stats-write=0 / stats-read=0 / ipratio=1.40 / pbratio=1.30 / aq-mode=3 / aq-strength=0.40 / cutree / zone-count=0 / no-strict-cbr / qg-size=32 / no-rc-grain / qpmax=69 / qpmin=0 / no-const-vbv / sar=0 / overscan=0 / videoformat=5 / range=0 / colorprim=2 / transfer=2 / colormatrix=2 / chromaloc=0 / display-window=0 / max-cll=0,0 / min-luma=0 / max-luma=1023 / log2-max-poc-lsb=8 / vui-timing-info / vui-hrd-info / slices=1 / no-opt-qp-pps / no-opt-ref-list-length-pps / no-multi-pass-opt-rps / scenecut-bias=0.05 / no-opt-cu-delta-qp / aq-motion / no-hdr / no-hdr-opt / no-dhdr10-opt / no-idr-recovery-sei / analysis-reuse-level=5 / scale-factor=0 / refine-intra=0 / refine-inter=0 / refine-mv=0 / refine-ctu-distortion=0 / no-limit-sao / ctu-info=0 / no-lowpass-dct / refine-analysis-type=0 / copy-pic=1 / max-ausize-factor=1.0 / no-dynamic-refine / no-single-sei / hevc-aq / no-svt / qp-adaptation-range=1.00
Default                                  : Yes
Forced                                   : No

Audio
ID                                       : 2
Format                                   : AAC
Format/Info                              : Advanced Audio Codec
Format profile                           : LC
Codec ID                                 : A_AAC
Duration                                 : 23 min 50 s
Bit rate                                 : 128 kb/s
Channel(s)                               : 2 channels
Channel positions                        : Front: L R
Sampling rate                            : 44.1 kHz
Frame rate                               : 43.066 FPS (1024 spf)
Compression mode                         : Lossy
Delay relative to video                  : 10 ms
Stream size                              : 21.8 MiB (12%)
Language                                 : Japanese
Default                                  : No
Forced                                   : No

Subtitle #1
ID                                       : 3
Format                                   : ASS
Codec ID                                 : S_TEXT/ASS
Codec ID/Info                            : Advanced Sub Station Alpha
Duration                                 : 23 min 46 s
Bit rate                                 : 167 b/s
Count of elements                        : 430
Compression mode                         : Lossless
Stream size                              : 29.2 KiB (0%)
Title                                    : English(US)
Language                                 : English
Default                                  : Yes
Forced                                   : No

Subtitle #2
ID                                       : 4
Format                                   : ASS
Codec ID                                 : S_TEXT/ASS
Codec ID/Info                            : Advanced Sub Station Alpha
Duration                                 : 23 min 47 s
Bit rate                                 : 133 b/s
Count of elements                        : 362
Compression mode                         : Lossless
Stream size                              : 23.3 KiB (0%)
Title                                    : Espanol(Espana)
Language                                 : Spanish
Default                                  : No
Forced                                   : No

Subtitle #3
ID                                       : 5
Format                                   : ASS
Codec ID                                 : S_TEXT/ASS
Codec ID/Info                            : Advanced Sub Station Alpha
Duration                                 : 23 min 45 s
Bit rate                                 : 244 b/s
Count of elements                        : 415
Compression mode                         : Lossless
Stream size                              : 42.5 KiB (0%)
Title                                    : Russian
Language                                 : Russian
Default                                  : No
Forced                                   : No





Category:Anime > Dubbed/Subbed
Lang:Japanese  Japanese
Total Size:177 MB
Info Hash:dfdc1b2e1de46b00ffe569a1e15f7e53e154ff91
Added By:theincognito
Date Added:10-04-2019 02:52:17

Files

File List: 
 File Size
One.Punch.Man.S02E01.1080p.WEBRip.x265.HEVC.10bit.AAC.2.0-theincognito[UTR].mkv177 MB



Comments

There are currently no comments. Be the first one to write something !