kgf sarkar Manikarnika star trek discovery thakrey Xxx kedarnath thackeray malayalam the accidental prime minister supernatural evo aquaman telugu odiyan the flash why cheat india great british bake off s09e10 vikings tushy 18.12 1080p.mp4-ktr charlie chaplin 2 1080P Hindi mirzapur ettv mr majnu the grand tour 2018 ita Adanga Maru Tin Star etmovies dtone uri EVO malayalam 2018 movies AQUAMAN ita Bumblebee ethd ITA zero etrg venom f2 1080p 2018 maari 2 Game Of Thrones viswasam TamilRockers Kannada simmba Kannada ddr simbha tushyraw 1080p.mp4-ktr mortal engines simba petta DTOne uri the surgical strike kung fu the legend Young justice tamil robot 2.0 it brazzers it 2017 2.0 thakre Njan Prakashan glass fgt bohemian rhapsody Star Trek Discovery S02E02 
Warning! Use a VPN When Downloading Torrents!
Your IP Address is 18.232.147.215. Location is United States
Your Internet Provider is tracking your torrent activity! Hide your IP ADDRESS with a VPN!
We strongly recommend using ExpressVPN to anonymize your torrenting. 30 Day Money Back Guarantee!
Try it Now!
ETTV Recommended TV Shows
The.Flash.2014.S05E19.HDTV.x264-LucidTV[ettv] torrent
Cobra.Kai.S02.720p.WEBRip.x264-PBS[ettv] torrent
SEAL.Team.S02E19.HDTV.x264-LucidTV[ettv] torrent
Chicago.Fire.S07E19.HDTV.x264-LucidTV[ettv] torrent
Riverdale.US.S03E19.HDTV.x264-LucidTV[ettv] torrent
Whiskey.Cavalier.S01E09.HDTV.x264-KILLERS[ettv] torrent

ETTV Recommended SD
Happy.Death.Day.2U.2019.HDRip.XviD.AC3-EVO torrent
I.Spit.on.Your.Grave.Deja.Vu.2019.BDRip.XViD.AC3-ETRG torrent
Backdraft.2.2019.HDRip.XViD-ETRG torrent
What.Men.Want.2019.HDRip.XViD-ETRG torrent

ETTV Recommended HD
A Common Man AKA Death Watch 2012.1080p.BluRay.HEVC.DTS-HDMA.5.1-DDR torrent
Destroyer.2018.BluRay.1080p.HEVC.DTS-HD.MA.5.1-DDR torrent
I Spit On Your Grave - Deja vu 2019.Blu-ray.1080p.HEVC.DTS-HDMA.5.1-DDR torrent
Happy.Death.Day.2U.2019.1080p.WEB-DL.H264.AC3-EVO[EtHD] torrent

ETTV Recommended UHD
Star Wars Episode II Attack of the Clones (2002) x 1600 (2160p) SDR 5.1 x265 10bit Phun Psyz torrent
The Mayflower Voyagers 1988.2160p.UHD.BluRay.HDR.HEVC.DTS-HD.MA.5.1-DDR torrent
Miss Bala 2019.MULTI.2160p.HDR.UHDRip.DTS-HD.MA.5.1-DDR torrent
Solo A Star Wars Story (2018) x 1600 (2160p) HDR 5.1 x265 10bit Phun Psyz torrent

ETTV Recommended Cam
Hellboy.2019.HDCAM.v2.x264.AC3-ETRG torrent
The.Curse.of.La.Llorona.2019.HDCAM.x264.AC3-ETRG torrent
Captain.Marvel.2019.HDTC.x264 AC3-ETRG torrent
Avengers Endgame 2019 NEW HDCAM x264 AC3-ETRG torrent

ETTV Recommended Foreign
Mission.Impossible.Fallout.(2018).[IMAX.1080p].[Dual.Audio].[Org.BD].{Hindi+Eng.6Ch}.-~{DOOMSDAY}~-. torrent
Force.2011.1080p.WEB-DL.AVC.AAC.ESub.DDR torrent
OK Jaanu.2017.1080p.WEB-DL.AVC.AAC.ESub.DDR torrent
Lo.spietato.2019.1080p.NF.WEB-DL.DDP5.1.x264-NTG[EtHD] torrent


Download Torrent "Avengers Age of Ultron (2015) x 1600 (2160p) HDR 5.1 x265 10bit Phun Psyz"

IMDB Details
Description:

When Tony Stark and Bruce Banner try to jump-start a dormant peacekeeping program called Ultron, things go horribly wrong and it's up to Earth's mightiest heroes to stop the villainous Ultron from enacting his terrible plan.

Genre:

Action, Adventure, Sci-Fi

Download Torrent (Magnet)
Download Torrent (File)
Seeds: 367
Leechers: 213
Completed: 2,391 
Last Checked: 12-04-2019 19:29:46


Details
Title:Avengers Age of Ultron (2015) x 1600 (2160p) HDR 5.1 x265 10bit Phun Psyz
Description:
www.imdb.com/title/tt2395427/

When Tony Stark and Bruce Banner try to jump-start a dormant peacekeeping program called Ultron, things go horribly wrong and it's up to Earth's mightiest heroes to stop the villainous Ultron from enacting his terrible plan.

Source: FGT 4K HDR Remux







Format                      : Matroska
Format version              : Version 4
File size                   : 3.64 GiB
Duration                    : 2 h 21 min
Overall bit rate            : 3 686 kb/s
Writing application         : HandBrake 1.2.0 2018121700

Video
ID                          : 1
Format                      : HEVC
Format/Info                 : High Efficiency Video Coding
Format profile              : Main [email protected]@High
Codec ID                    : V_MPEGH/ISO/HEVC
Duration                    : 2 h 21 min
Bit rate                    : 3 293 kb/s
Width                       : 3 840 pixels
Height                      : 1 600 pixels
Display aspect ratio        : 2.40:1
Frame rate mode             : Constant
Frame rate                  : 23.976 (24000/1001) FPS
Color space                 : YUV
Chroma subsampling          : 4:2:0
Bit depth                   : 10 bits
Bits/(Pixel*Frame)          : 0.022
Stream size                 : 3.25 GiB (89%)
Writing library             : x265 2.9:[Windows][GCC 7.1.0][64 bit] 10bit
Color primaries             : BT.2020
Transfer characteristics    : PQ
Matrix coefficients         : BT.2020 non-constant

Audio
ID                          : 2
Format                      : AC-3
Format/Info                 : Audio Coding 3
Commercial name             : Dolby Digital
Codec ID                    : A_AC3
Duration                    : 2 h 21 min
Bit rate mode               : Constant
Bit rate                    : 320 kb/s
Channel(s)                  : 6 channels
Channel layout              : L R C LFE Ls Rs
Sampling rate               : 48.0 kHz
Frame rate                  : 31.250 FPS (1536 SPF)
Bit depth                   : 16 bits
Compression mode            : Lossy
Stream size                 : 323 MiB (9%)
Title                       : Surround
Language                    : English

Text 
Language                    : English
Language                    : French
Language                    : Spanish
Language                    : Japanese
Language                    : Chinese
Language                    : Korean
Language                    : Chinese
Language                    : French
Language                    : Spanish
Language                    : Japanese
Default                     : No
Forced                      : No
Category:Movies > UltraHD/4K
Lang:English  English
Total Size:3.64 GB
Info Hash:c1598a8d615633a03ca9fbeff5210fd70f057f38
Added By:phunpsyz
Date Added:12-04-2019 19:29:40

  

Files

File List: 
 File Size
Avengers Age of Ultron (2015) x 1600 (2160p) HDR 5.1 x265 10bit Phun Psyz.mkv3.64 GB



Comments

There are currently no comments. Be the first one to write something !