kgf sarkar Manikarnika star trek discovery thakrey Xxx kedarnath thackeray malayalam the accidental prime minister supernatural evo aquaman telugu odiyan the flash why cheat india great british bake off s09e10 vikings tushy 18.12 1080p.mp4-ktr charlie chaplin 2 1080P Hindi mirzapur ettv mr majnu the grand tour 2018 ita Adanga Maru Tin Star etmovies dtone uri EVO malayalam 2018 movies AQUAMAN ita Bumblebee ethd ITA zero etrg venom f2 1080p 2018 maari 2 Game Of Thrones viswasam TamilRockers Kannada simmba Kannada ddr simbha tushyraw 1080p.mp4-ktr mortal engines simba petta DTOne uri the surgical strike kung fu the legend Young justice tamil robot 2.0 it brazzers it 2017 2.0 thakre Njan Prakashan glass fgt bohemian rhapsody Star Trek Discovery S02E02 
Warning! Use a VPN When Downloading Torrents!
Your IP Address is 3.84.182.112. Location is United States
Your Internet Provider is tracking your torrent activity! Hide your IP ADDRESS with a VPN!
We strongly recommend using ExpressVPN to anonymize your torrenting. 30 Day Money Back Guarantee!
Try it Now!
ETTV Recommended TV Shows
Star.Trek.Discovery.S02E14.WEBRip.x264-TBS[ettv] torrent
Gotham.S05E11.WEB.x264-TBS[ettv] torrent
Marvels.Cloak.And.Dagger.S02E04.WEB.x264-TBS[ettv] torrent
The.Orville.S02E13.WEB.x264-TBS[ettv] torrent
Bosch.S05.WEBRip.x264-SHiTSPREAD[ettv] torrent
Supernatural.S14E19.WEB.h264-TBS[ettv] torrent

ETTV Recommended SD
Miss.Bala.2019.HDRip.XViD-ETRG torrent
Avengers.Infinity.War.2018..NF.WebDL.AVC.DD.5.1-ETRG torrent
High.Life.2018.BRRip.XViD-ETRG torrent
Split .2017.NF.WebDL.AVC.DD.5.1-ETRG torrent

ETTV Recommended HD
Runnin from My Roots 2018.Blu-ray.1080p.HEVC.DTS-HDMA.5.1-DDR torrent
Scream for Me Sarajevo 2017.1080p.Blu-ray.HEVC.PCM.2.0-.DDR torrent
Bridget Jones Baby 2016.Multi.1080p.Bluray.HEVC.DTS-HDMA.5.1.[En+Hi]-DDR torrent
Close.2019.1080p.NF.WebDL.AVC.DD.5.1-ETRG torrent

ETTV Recommended UHD
Escape Room 2019.MULTI.2160p.HDR.UHDRip.HEVC.DTS-HD.MA.5.1-DDR torrent
Captain America The Winter Soldier 2014.Multi.UHD.BluRay.2160p.HDR.HEVC.Atmos.7.1-DDR torrent
Captain America Civil War 2016.Multi.UHD.BluRay.2160p.HDR.HEVC.Atmos.7.1-DDR torrent
The.Karate.Kid.1984.Multi.UHD.Blu-ray.2160p.HDR.HEVC.Atmos.7.1-DDR torrent

ETTV Recommended Cam
After 2019 720p HDCAM-1XBET torrent
Missing Link.2019.HDCAM.x264.AC3-ETRG torrent
Mia and the White Lion 2019 720p HDCAM-1XBET torrent
Hellboy.2019.HDCAM.v2.x264.AC3-ETRG torrent

ETTV Recommended Foreign
Rustom.2016.UHD.2160p.SDR.HEVC.Atmos.7.1-DDR torrent
Hostel.2011.Hindi.576p.AMZN.WeB.DL.H264.DDP.2.0.DusIcTv torrent
Kalank.(2019).1-3.pDVD.Rip.x264.AC3-DusIcTv torrent
Helicopter Eela.2018.1080p.WEB-DL.AVC.AACESub.DDR torrent


Download Torrent "Gunaah (2002) Hindi 1080p Untouched WebHD AVC {Music Video} ESuBS By-DusIcT..."

IMDB Details
Description:

Tough cop Prabha (Bipasha Basu) is haunted by the demons of her past. Being an illegitimate daughter of a prostitute, she has had a very bad childhood and there once occurred an incident in...

Genre:

Crime, Drama

Download Torrent (Magnet)
Download Torrent (File)
Seeds: 40
Leechers: 5
Completed: 20 
Last Checked: 14-04-2019 22:44:23


Loading...
Details
Title:Gunaah (2002) Hindi 1080p Untouched WebHD AVC {Music Video} ESuBS By-DusIcT...
Description:



Gunaah (2002) Hindi 1080p Untouched WebHD AVC {Music Video} ESuBS By-DusIcTv

Media info
Format                         : Matroska
Format version                 : Version 4
File size                      : 1.62 GB
Overall bit rate               : 10.6 Mb/s
Writing library : libebml v1.3.6 + libmatroska v1.4.9


Video
ID                             : 1
Format                         : AVC
Format/Info                    : Advanced Video Codec
Format profile                 : [email protected]
Format settings                : CABAC / 2 Ref Frames
Format settings, CABAC         : Yes
Format settings, ReFrames      : 2 frames
Codec ID                       : V_MPEG4/ISO/AVC
Bit rate mode                  : Constant
Bit rate                       : 10.4 Mb/s
Width                          : 1 920 pixels
Height                         : 1 080 pixels
Display aspect ratio           : 16:9
Frame rate mode                : Constant
Frame rate                     : 29.970 (30000/1001) FPS
Color space                    : YUV
Chroma subsampling             : 4:2:0
Bit depth                      : 8 bits
Scan type                      : Progressive
Bits/(Pixel*Frame)             : 0.167
Stream size                    : 396 MiB (98%)
Default                        : Yes
Forced                         : No


Audio
ID                             : 2
Format                         : AAC LC
Format/Info                    : Advanced Audio Codec
Codec ID                       : A_AAC-2
Bit rate                       : 182 kb/s
Channel(s)                     : 2 channels
Channel layout                 : L R
Sampling rate                  : 48.0 kHz
Frame rate                     : 46.875 FPS (1024 SPF)
Compression mode               : Lossy
Delay relative to video        : 12 ms
Stream size                    : 6.95 MiB (2%)
Default                        : Yes
Forced                         : No

|Note-----------------------------> We have https://bwt.pw/index.php

ScreenShot










This Movie Songs Rip By @Special26


==========================================================
Note: We have moved to ---->> https://bwt.pw/index.php 
==========================================================

Request here for the song of any movie  https://bwt.pw/mailbox.php?compose&id=5



Don't Forget To Give Comments And Thanks...
Category:Music > Music Videos
Lang:Hindi  Hindi
Total Size:1.63 GB
Info Hash:df57b3155b6b859b02db14665d22514c2d6e1c49
Added By:Dus
Date Added:14-04-2019 22:44:23

Files

File List: 
 File Size
01.Hamne Tumko Dil Ye De Diya.mkv403 MB
02.Jab Dil Churaya.mkv376 MB
03.Jab Dil Churaya (2nd).mkv102 MB
04.Rooth Kar Hum.mkv457 MB
05.Sajna Saajna.mkv328 MB



Comments

There are currently no comments. Be the first one to write something !