kgf sarkar Manikarnika star trek discovery thakrey Xxx kedarnath thackeray malayalam the accidental prime minister supernatural evo aquaman telugu odiyan the flash why cheat india great british bake off s09e10 vikings tushy 18.12 1080p.mp4-ktr charlie chaplin 2 1080P Hindi mirzapur ettv mr majnu the grand tour 2018 ita Adanga Maru Tin Star etmovies dtone uri EVO malayalam 2018 movies AQUAMAN ita Bumblebee ethd ITA zero etrg venom f2 1080p 2018 maari 2 Game Of Thrones viswasam TamilRockers Kannada simmba Kannada ddr simbha tushyraw 1080p.mp4-ktr mortal engines simba petta DTOne uri the surgical strike kung fu the legend Young justice tamil robot 2.0 it brazzers it 2017 2.0 thakre Njan Prakashan glass fgt bohemian rhapsody Star Trek Discovery S02E02 
Warning! Use a VPN When Downloading Torrents!
Your IP Address is 3.95.23.35. Location is United States
Your Internet Provider is tracking your torrent activity! Hide your IP ADDRESS with a VPN!
We strongly recommend using ExpressVPN to anonymize your torrenting. 30 Day Money Back Guarantee!
Try it Now!
ETTV Recommended TV Shows
The.Flash.2014.S05E19.HDTV.x264-LucidTV[ettv] torrent
Roswell.New.Mexico.S01E13.HDTV.x264-LucidTV[ettv] torrent
The.Village.2019.S01E06.HDTV.x264-LucidTV[ettv] torrent
Cobra.Kai.S02.720p.WEBRip.x264-PBS[ettv] torrent
NCIS.New.Orleans.S05E21.WEB.x264-TBS[ettv] torrent
New.Amsterdam.2018.S01E19.HDTV.x264-LucidTV[ettv] torrent

ETTV Recommended SD
8.Ball.Clown.2018.HDRip.XviD.AC3-EVO torrent
Yamasong.March.Of.The.Hollows.2017.HDRip.XviD.AC3-EVO torrent
Cruise.2018.BDRip.XviD.AC3-EVO torrent
I Spit on Your Grave Deja Vu.2019.BDRip.XviD.AC3-EVO torrent

ETTV Recommended HD
A Common Man AKA Death Watch 2012.1080p.BluRay.HEVC.DTS-HDMA.5.1-DDR torrent
The Hunchback of Notre Dame 1939.Multi.1080p.BluRay.HEVC.DTS-HD.MA.1.0 torrent
Destroyer.2018.BluRay.1080p.HEVC.DTS-HD.MA.5.1-DDR torrent
I Spit On Your Grave - Deja vu 2019.Blu-ray.1080p.HEVC.DTS-HDMA.5.1-DDR torrent

ETTV Recommended UHD
Captain America Civil War 2016.Multi.UHD.BluRay.2160p.HDR.HEVC.Atmos.7.1-DDR torrent
The.Karate.Kid.1984.Multi.UHD.Blu-ray.2160p.HDR.HEVC.Atmos.7.1-DDR torrent
Star Wars Episode II Attack of the Clones (2002) x 1600 (2160p) SDR 5.1 x265 10bit Phun Psyz torrent
The Mayflower Voyagers 1988.2160p.UHD.BluRay.HDR.HEVC.DTS-HD.MA.5.1-DDR torrent

ETTV Recommended Cam
Hellboy.2019.HDCAM.v2.x264.AC3-ETRG torrent
The.Curse.of.La.Llorona.2019.HDCAM.x264.AC3-ETRG torrent
Captain.Marvel.2019.HDTC.x264 AC3-ETRG torrent
Avengers Endgame 2019 NEW 720p HDCAM-1XBET torrent

ETTV Recommended Foreign
Arrest Letter.2017.1080p.WebDL.ARABIC.AVC.DD.2.0.ESub-ETRG[EtHD] torrent
Adrishya (2018) 720p Hindi HDRip - x264 - DD 5.1 - 1.4GB - ESub - MovCr torrent
When Obama Loved Osama (2018) Hindi HDRip x264 MP3 700MB ESub - MovCr torrent
Mission.Impossible.Fallout.(2018).[IMAX.1080p].[Dual.Audio].[Org.BD].{Hindi+Eng.6Ch}.-~{DOOMSDAY}~-. torrent


Download Torrent "Anjaam (1994) Hindi 1080p Untouched Webhd AVC {Music Video} ESuBS By-DusIcT..."

IMDB Details
Description:

Vijay falls in love Shivani and proposes her only to be rejected every time. However his love turns into an obsession and turns her life into a hell.

Genre:

Drama, Thriller

Download Torrent (Magnet)
Download Torrent (File)
Seeds: 21
Leechers: 27
Completed: 24 
Last Checked: 14-04-2019 23:18:07


Loading...
Details
Title:Anjaam (1994) Hindi 1080p Untouched Webhd AVC {Music Video} ESuBS By-DusIcT...
Description:



Anjaam (1994) Hindi 1080p Untouched Webhd AVC {Music Video} ESuBS By-DusIcTv

Media info
Format                         : Matroska
Format version                 : Version 4
File size                      : 2.52 GB
Overall bit rate               : 13.5 Mb/s


Video
ID                             : 1
Format                         : AVC
Format/Info                    : Advanced Video Codec
Format profile                 : [email protected]
Format settings                : CABAC / 4 Ref Frames
Format settings, CABAC         : Yes
Format settings, ReFrames      : 4 frames
Codec ID                       : V_MPEG4/ISO/AVC
Bit rate                       : 13.3 Mb/s
Width                          : 1 920 pixels
Height                         : 832 pixels
Display aspect ratio           : 2.35:1
Frame rate mode                : Constant
Frame rate                     : 24.000 FPS
Color space                    : YUV
Chroma subsampling             : 4:2:0
Bit depth                      : 8 bits
Scan type                      : Progressive
Bits/(Pixel*Frame)             : 0.348
Stream size                    : 468 MiB (99%)
Default                        : Yes
Forced                         : No


Audio
ID                             : 2
Format                         : AAC LC
Format/Info                    : Advanced Audio Codec
Codec ID                       : A_AAC-2
Bit rate                       : 192 kb/s
Channel(s)                     : 2 channels
Channel layout                 : L R
Sampling rate                  : 48.0 kHz
Frame rate                     : 46.875 FPS (1024 SPF)
Compression mode               : Lossy
Delay relative to video        : 13 ms
Stream size                    : 6.74 MiB (1%)
Default                        : Yes
Forced                         : No

|Note-----------------------------> We have https://bwt.pw/index.php

ScreenShot



















This Movie Songs Rip By @Special26


==========================================================
Note: We have moved to ---->> https://bwt.pw/index.php 
==========================================================

Request here for the song of any movie  https://bwt.pw/mailbox.php?compose&id=5



Don't Forget To Give Comments And Thanks...
Category:Music > Music Videos
Lang:Hindi  Hindi
Total Size:2.52 GB
Info Hash:f8da414bc24e53c43a2b5b4c28226d858cb9be7f
Added By:Dus
Date Added:14-04-2019 23:18:07

Files

File List: 
 File Size
01.Badi Muskhil Hai.mkv475 MB
02.Chane Ke Khet Mein.mkv664 MB
03.Tu Samne Jab Aata Hai.mkv455 MB
04.Barson Ke Baad.mkv461 MB
05.Kolhapur Se Aaye.mkv530 MB



Comments

There are currently no comments. Be the first one to write something !