kgf sarkar Manikarnika star trek discovery thakrey Xxx kedarnath thackeray malayalam the accidental prime minister supernatural evo aquaman telugu odiyan the flash why cheat india great british bake off s09e10 vikings tushy 18.12 1080p.mp4-ktr charlie chaplin 2 1080P Hindi mirzapur ettv mr majnu the grand tour 2018 ita Adanga Maru Tin Star etmovies dtone uri EVO malayalam 2018 movies AQUAMAN ita Bumblebee ethd ITA zero etrg venom f2 1080p 2018 maari 2 Game Of Thrones viswasam TamilRockers Kannada simmba Kannada ddr simbha tushyraw 1080p.mp4-ktr mortal engines simba petta DTOne uri the surgical strike kung fu the legend Young justice tamil robot 2.0 it brazzers it 2017 2.0 thakre Njan Prakashan glass fgt bohemian rhapsody Star Trek Discovery S02E02 
Warning! Use a VPN When Downloading Torrents!
Your IP Address is 18.234.236.14. Location is United States
Your Internet Provider is tracking your torrent activity! Hide your IP ADDRESS with a VPN!
We strongly recommend using ExpressVPN to anonymize your torrenting. 30 Day Money Back Guarantee!
Try it Now!
ETTV Recommended TV Shows
SEAL.Team.S02E18.HDTV.x264-KILLERS[ettv] torrent
Pretty.Little.Liars.The.Perfectionists.S01E05.WEB.x264-TBS[ettv] torrent
Whiskey.Cavalier.S01E08.HDTV.x264-KILLERS[ettv] torrent
Riverdale.US.S03E18.HDTV.x264-LucidTV[ettv] torrent
Survivor.S38E09.HDTV.x264-NY2 torrent
The.Magicians.US.S04E13.WEB.x264-TBS[ettv] torrent

ETTV Recommended SD
Miss.Bala.2019.HDRip.XViD-ETRG torrent
Avengers.Infinity.War.2018..NF.WebDL.AVC.DD.5.1-ETRG torrent
High.Life.2018.BRRip.XViD-ETRG torrent
Split .2017.NF.WebDL.AVC.DD.5.1-ETRG torrent

ETTV Recommended HD
Runnin from My Roots 2018.Blu-ray.1080p.HEVC.DTS-HDMA.5.1-DDR torrent
Scream for Me Sarajevo 2017.1080p.Blu-ray.HEVC.PCM.2.0-.DDR torrent
Bridget Jones Baby 2016.Multi.1080p.Bluray.HEVC.DTS-HDMA.5.1.[En+Hi]-DDR torrent
Close.2019.1080p.NF.WebDL.AVC.DD.5.1-ETRG torrent

ETTV Recommended UHD
Escape Room 2019.MULTI.2160p.HDR.UHDRip.HEVC.DTS-HD.MA.5.1-DDR torrent
Captain America The Winter Soldier 2014.Multi.UHD.BluRay.2160p.HDR.HEVC.Atmos.7.1-DDR torrent
Captain America Civil War 2016.Multi.UHD.BluRay.2160p.HDR.HEVC.Atmos.7.1-DDR torrent
The.Karate.Kid.1984.Multi.UHD.Blu-ray.2160p.HDR.HEVC.Atmos.7.1-DDR torrent

ETTV Recommended Cam
After 2019 720p HDCAM-1XBET torrent
Missing Link.2019.HDCAM.x264.AC3-ETRG torrent
Mia and the White Lion 2019 720p HDCAM-1XBET torrent
Hellboy.2019.HDCAM.v2.x264.AC3-ETRG torrent

ETTV Recommended Foreign
Kalank 2019 Hindi - HQ DVDScr - x264 - 700MB - AAC - MovCr torrent
Rustom.2016.UHD.2160p.SDR.HEVC.Atmos.7.1-DDR torrent
Guddi.1971.1080p.WEB-DL.AVC.AAC.ESub.DDR torrent
Hostel.2011.Hindi.576p.AMZN.WeB.DL.H264.DDP.2.0.DusIcTv torrent


Download Torrent "Game of Thrones S08E01 Kings Landing 1080p AMZN Webrip x265 EAC3 5.1 - Goki..."

IMDB Details
Description:

N/A

Genre:

N/A

Download Torrent (Magnet)
Download Torrent (File)
Seeds: 1,507
Leechers: 195
Completed: 7,894 
Last Checked: 15-04-2019 11:43:04


Loading...
Details
Title:Game of Thrones S08E01 Kings Landing 1080p AMZN Webrip x265 EAC3 5.1 - Goki...
Description:









Media Information

Unique ID                                : 232020463610230674482278210366001191809 (0xAE8D840F40FC1387E5AB24A117DD1B81)
Complete name                            : Game of Thrones S08E01 Kings Landing 1080p AMZN Webrip x265 EAC3 5.1 - Goki [SEV].mkv
Format                                   : Matroska
Format version                           : Version 4
File size                                : 1.22 GiB
Duration                                 : 55 min 47 s
Overall bit rate                         : 3 133 kb/s
Movie name                               : Game of Thrones S08E01 Kings Landing 1080p AMZN Webrip x265 EAC3 5.1 - Goki [SEV]
Encoded date                             : UTC 2019-04-15 10:16:14
Writing application                      : mkvmerge v28.2.0 ('The Awakening') 64-bit
Writing library                          : libebml v1.3.6 + libmatroska v1.4.9

Video
ID                                       : 1
Format                                   : HEVC
Format/Info                              : High Efficiency Video Coding
Format profile                           : Main [email protected]@Main
Codec ID                                 : V_MPEGH/ISO/HEVC
Duration                                 : 55 min 45 s
Bit rate                                 : 2 493 kb/s
Width                                    : 1 920 pixels
Height                                   : 1 080 pixels
Display aspect ratio                     : 16:9
Frame rate mode                          : Constant
Frame rate                               : 23.976 (24000/1001) FPS
Color space                              : YUV
Chroma subsampling                       : 4:2:0
Bit depth                                : 10 bits
Bits/(Pixel*Frame)                       : 0.050
Stream size                              : 994 MiB (80%)
Writing library                          : x265 2.9+8-27d8424c799d:[Windows][MSVC 1915][64 bit] 10bit
Encoding settings                        : cpuid=1111039 / frame-threads=2 / numa-pools=4 / wpp / no-pmode / no-pme / no-psnr / no-ssim / log-level=2 / input-csp=1 / input-res=1920x1080 / interlace=0 / total-frames=0 / level-idc=0 / high-tier=1 / uhd-bd=0 / ref=4 / no-allow-non-conformance / no-repeat-headers / annexb / no-aud / no-hrd / info / hash=0 / no-temporal-layers / open-gop / min-keyint=23 / keyint=250 / gop-lookahead=0 / bframes=8 / b-adapt=2 / b-pyramid / bframe-bias=0 / rc-lookahead=100 / lookahead-slices=4 / scenecut=40 / radl=0 / no-intra-refresh / ctu=64 / min-cu-size=8 / no-rect / no-amp / max-tu-size=32 / tu-inter-depth=1 / tu-intra-depth=1 / limit-tu=0 / rdoq-level=2 / dynamic-rd=0.00 / no-ssim-rd / signhide / no-tskip / nr-intra=0 / nr-inter=0 / no-constrained-intra / no-strong-intra-smoothing / max-merge=3 / limit-refs=3 / limit-modes / me=3 / subme=5 / merange=57 / temporal-mvp / weightp / no-weightb / no-analyze-src-pics / deblock=0:0 / sao / no-sao-non-deblock / rd=4 / no-early-skip / rskip / no-fast-intra / no-tskip-fast / no-cu-lossless / no-b-intra / no-splitrd-skip / rdpenalty=0 / psy-rd=1.30 / psy-rdoq=2.00 / no-rd-refine / no-lossless / cbqpoffs=0 / crqpoffs=0 / rc=crf / crf=20.0 / qcomp=0.60 / qpstep=4 / stats-write=0 / stats-read=0 / ipratio=1.40 / pbratio=1.30 / aq-mode=2 / aq-strength=1.10 / cutree / zone-count=0 / no-strict-cbr / qg-size=32 / no-rc-grain / qpmax=69 / qpmin=0 / no-const-vbv / sar=1 / overscan=0 / videoformat=5 / range=0 / colorprim=2 / transfer=2 / colormatrix=2 / chromaloc=0 / display-window=0 / max-cll=0,0 / min-luma=0 / max-luma=1023 / log2-max-poc-lsb=8 / vui-timing-info / vui-hrd-info / slices=1 / no-opt-qp-pps / no-opt-ref-list-length-pps / no-multi-pass-opt-rps / scenecut-bias=0.05 / no-opt-cu-delta-qp / no-aq-motion / no-hdr / no-hdr-opt / no-dhdr10-opt / no-idr-recovery-sei / analysis-reuse-level=5 / scale-factor=0 / refine-intra=0 / refine-inter=0 / refine-mv=0 / no-limit-sao / ctu-info=0 / no-lowpass-dct / refine-mv-type=0 / copy-pic=1 / max-ausize-factor=1.0 / no-dynamic-refine / no-single-sei
Default                                  : Yes
Forced                                   : No

Audio
ID                                       : 2
Format                                   : E-AC-3
Format/Info                              : Enhanced AC-3
Commercial name                          : Dolby Digital Plus
Codec ID                                 : A_EAC3
Duration                                 : 55 min 45 s
Bit rate mode                            : Constant
Bit rate                                 : 640 kb/s
Channel(s)                               : 6 channels
Channel layout                           : L R C LFE Ls Rs
Sampling rate                            : 48.0 kHz
Frame rate                               : 31.250 FPS (1536 SPF)
Compression mode                         : Lossy
Delay relative to video                  : 8 ms
Stream size                              : 255 MiB (20%)
Language                                 : English
Service kind                             : Complete Main
Default                                  : Yes
Forced                                   : No

Text
ID                                       : 3
Format                                   : UTF-8
Codec ID                                 : S_TEXT/UTF8
Codec ID/Info                            : UTF-8 Plain Text
Duration                                 : 55 min 41 s
Bit rate                                 : 45 b/s
Count of elements                        : 665
Stream size                              : 18.4 KiB (0%)
Language                                 : English
Default                                  : No
Forced                                   : No

Source
AMZN GoT

.........................................................................................................................................

We have no issue with individuals posting or re-uploading our torrents on a platform we aren't on. However, if this is something you'd like to do, please do so in a 'as-is' format. We ask that you do not create a new torrent, include all descriptions you see above including the SEV logo, tags, notes and screenshots. If you'd like to become a permanent poster on a website we don't post to, feel free to get in contact with a Sublime Encoded Video member.


We are recruiting/training new members for SEV & seedbox providers as well as people to help out with subtitles.
As you already know, we deliver quality, so you know the standard.
If you're interested, feel free to contact any of the team members.

Category:TV > HEVC/x265
Lang:English  English
Total Size:1.22 GB
Info Hash:c1001d203d33a8ce87eff556fc4a04c5045c99d0
Added By:Goki
Date Added:15-04-2019 11:43:01

Files

File List: 
 File Size
Game of Thrones S08E01 Kings Landing 1080p AMZN Webrip x265 EAC3 5.1 - Goki [SEV].mkv1.22 GB



Comments

There are currently no comments. Be the first one to write something !