little 2019 alita battle angel 2019 men in black international 2019 dc week shazam 2019 aew the lion king 2019 dark phoenix 2019 once upon a time in hollywood 2019 yesterday 2019 evo etrg annabelle comes home 2019 john wick John Wick 3 midsommar 2019 dumbo 2019 childs play 2019 FORMULA ettv spider man far from home 2019 i got the hook up 2 2019 chernobyl stranger things arrow español john wick chapter 3 – parabellum 2019 stuber 2019 Hellboy 2019 kabir singh ma 2019 Xxx ethd point blank 2019 aladdin 2019 harry potter 0 yts crawl 2019 ddr marvels agents of shield s06e09 the rook godzilla king of the monsters 2019 nascar star trek discovery español captain marvel 2019 the dead dont die 2019 shaft 2019 us 2019 swamp thing s01e07 formula 1 pokemon detective pikachu 2019 avengers endgame 2019 DDR aquaman 2018 rocketman 2019 yellowstone s02e03 avengers endgame brightburn 2019 f1 2.0 (2018) alita super 30 toy story 4 2019 etmovies hindi ufc the intruder 2019 swamp thing shazam escape plan the extractors 2019 the secret life of pets 2 2019 pet sematary 2019 anna 2019 
Warning! Use a VPN When Downloading Torrents!
Your IP Address is 35.171.183.163. Location is United States
Your Internet Provider is tracking your torrent activity! Hide your IP ADDRESS with a VPN!
We strongly recommend using ExpressVPN to anonymize your torrenting. 30 Day Money Back Guarantee!
Try it Now!
ETTV Recommended TV Shows
Euphoria.US.S01E05.WEB.h264-TBS[ettv] torrent
Big.Little.Lies.S02E06.WEB.h264-TBS[ettv] torrent
Instinct.US.S02E03.720p.HDTV.x264-AVS[ettv] torrent
WWE Extreme Rules 2019 PPV WEB h264-HEEL [TJET] torrent

ETTV Recommended SD
The.Intruder.2019.HDRip.AC3.x264-CMRG[EtMovies] torrent
SGT.Will.Gardner.2019.BRRip.XviD.AC3-EVO torrent
The.Cleansing.2019.HDRip.AC3.x264-CMRG[EtMovies] torrent
Hellboy.2019.BDRip.XviD.AC3-EVO[EtMovies] torrent

ETTV Recommended HD
John Wick Chapter 2 (2017)-Keanu Reeves-1080p-H264-AC 3 (DolbyDigital-5.1) & nickarad torrent
Alita.Battle.Angel.2019.Multi.1080p.Blu-ray.HEVC.DTS-HD.MA.7.1-DDR[EtHD] torrent
Poms.2019.1080p.NF.WEB-DL.DDP5.1.x264-NTG[EtHD] torrent
Hellboy.2019.1080p.Bluray.X264-EVO[EtHD] torrent

ETTV Recommended UHD
Shazam! 2019.Multi.UHD.BluRay.2160p.HDR.HEVC.Atmos.7.1[En+Hindi++]-DDR torrent
Hulk 2003.MULTi.Blu-ray.2160.HDR.HEVC.DTS-X.7.1-DDR torrent
Water World 1995.MULTi.Blu-ray.2160p.HEVC.HDR.DTS-X.7.1-DDR torrent
Alita Battle Angel 2019.MULTi.UHD.BluRay.2160p.HDR.Atmos.7.1.HEVC[EN+Hindi++]-DDR.mkv torrent

ETTV Recommended Cam
Yesterday 2019 720p HDCAM-1XBET torrent
Spider-Man Far From Home 2019 NEW 720p HD-TC NO ADS-1XBET torrent
Crawl 2019 720p HDCAM-1XBET torrent
Stuber 2019 720p HDCAM-1XBET torrent

ETTV Recommended Foreign
Sophia.Antipolis.2018.1080p.FRA.WEB-Rip.AAC2.0.HEVC-DDR[EtHD] torrent
Alita: Battle Angel - Alita: Angelo della battaglia (2019).720p.H264.ita.eng.Ac3-5.1.sub.ita.eng-MIRCrew torrent
Devi.2016.1080p.WEB-DL.AVC.AAC.DDR torrent
Kalakalappu 2.2018.1080p.WEB-DL.AVC.AAC.ESub.DDR torrent


Download Torrent "Hanna (2019) Season 01 S01 (1080p AMZN WEBRip x265 HEVC 10bit AAC 5.1 Joy) ..."

IMDB Details
Description:

In equal parts high-concept thriller and coming-of-age drama, HANNA follows the journey of an extraordinary young girl raised in the forest, as she evades the relentless pursuit of an off-book CIA agent and tries to unearth the truth behind who she is.

Genre:

Action, Drama

Download Torrent (Magnet)
Download Torrent (File)
Seeds: 232
Leechers: 101
Completed: 1,954 
Last Checked: 15-04-2019 14:40:46


Loading...
Details
Title:Hanna (2019) Season 01 S01 (1080p AMZN WEBRip x265 HEVC 10bit AAC 5.1 Joy) ...
Description:




Media Information

General
Format                                   : Matroska
Format version                           : Version 4 / Version 2
File size                                : 513 MiB
Duration                                 : 51 min 35 s
Overall bit rate                         : 1 389 kb/s
Movie name                               : Hanna S01E06 2160p HDR Amazon WEBRip DD+ 5.1 x265-TrollUHD  (960p x265 10bit Joy)
Encoded date                             : UTC 2019-04-08 11:05:04
Writing application                      : mkvmerge v24.0.0 ('Beyond The Pale') 64-bit
Writing library                          : libebml v1.3.6 + libmatroska v1.4.9
Writing frontend                         : StaxRip v1.8.2.0, a JoyBell Encode

Video
ID                                       : 1
Format                                   : HEVC
Format/Info                              : High Efficiency Video Coding
Format profile                           : Main [email protected]@Main
Codec ID                                 : V_MPEGH/ISO/HEVC
Duration                                 : 51 min 33 s
Bit rate                                 : 1 203 kb/s
Width                                    : 1 920 pixels
Height                                   : 960 pixels
Display aspect ratio                     : 2.000
Frame rate mode                          : Constant
Frame rate                               : 23.976 (24000/1001) FPS
Color space                              : YUV
Chroma subsampling                       : 4:2:0
Bit depth                                : 10 bits
Bits/(Pixel*Frame)                       : 0.027
Stream size                              : 443 MiB (86%)
Writing library                          : x265 3.0_Au+14-c7e5878bdd31:[Windows][MSVC 1916][64 bit] 10bit
Encoding settings                        : cpuid=1111039 / frame-threads=3 / numa-pools=8 / wpp / no-pmode / no-pme / no-psnr / ssim / log-level=2 / input-csp=1 / input-res=1920x960 / interlace=0 / total-frames=74158 / level-idc=0 / high-tier=1 / uhd-bd=0 / ref=4 / no-allow-non-conformance / no-repeat-headers / annexb / no-aud / no-hrd / info / hash=0 / no-temporal-layers / open-gop / min-keyint=23 / keyint=250 / gop-lookahead=0 / bframes=8 / b-adapt=2 / b-pyramid / bframe-bias=40 / rc-lookahead=80 / lookahead-slices=4 / scenecut=40 / radl=0 / no-splice / no-intra-refresh / ctu=64 / min-cu-size=8 / no-rect / no-amp / max-tu-size=32 / tu-inter-depth=1 / tu-intra-depth=1 / limit-tu=0 / rdoq-level=2 / dynamic-rd=0.00 / ssim-rd / signhide / no-tskip / nr-intra=0 / nr-inter=0 / no-constrained-intra / strong-intra-smoothing / max-merge=3 / limit-refs=3 / limit-modes / me=3 / subme=3 / merange=57 / temporal-mvp / weightp / no-weightb / no-analyze-src-pics / deblock=0:0 / sao / no-sao-non-deblock / rd=4 / no-early-skip / rskip / no-fast-intra / no-tskip-fast / no-cu-lossless / no-b-intra / no-splitrd-skip / rdpenalty=0 / psy-rd=0.00 / psy-rdoq=1.50 / no-rd-refine / no-lossless / cbqpoffs=0 / crqpoffs=0 / rc=abr / bitrate=1200 / qcomp=0.60 / qpstep=4 / stats-write=0 / stats-read=2 / cplxblur=20.0 / qblur=0.5 / ipratio=1.40 / pbratio=1.30 / aq-mode=3 / aq-strength=0.80 / cutree / zone-count=0 / no-strict-cbr / qg-size=32 / no-rc-grain / qpmax=69 / qpmin=0 / no-const-vbv / sar=0 / overscan=0 / videoformat=5 / range=0 / colorprim=2 / transfer=2 / colormatrix=2 / chromaloc=0 / display-window=0 / max-cll=0,0 / min-luma=0 / max-luma=1023 / log2-max-poc-lsb=8 / vui-timing-info / vui-hrd-info / slices=1 / no-opt-qp-pps / no-opt-ref-list-length-pps / multi-pass-opt-rps / scenecut-bias=0.05 / no-opt-cu-delta-qp / no-aq-motion / no-hdr / no-hdr-opt / no-dhdr10-opt / no-idr-recovery-sei / analysis-reuse-level=10 / scale-factor=0 / refine-intra=0 / refine-inter=0 / refine-mv=0 / refine-ctu-distortion=0 / limit-sao / ctu-info=0 / no-lowpass-dct / refine-analysis-type=0 / copy-pic=1 / max-ausize-factor=1.0 / no-dynamic-refine / no-single-sei / no-hevc-aq / no-svt / qp-adaptation-range=1.00
Default                                  : Yes
Forced                                   : No

Audio
ID                                       : 2
Format                                   : AAC
Format/Info                              : Advanced Audio Codec
Format profile                           : HE-AAC / LC
Codec ID                                 : A_AAC
Duration                                 : 51 min 35 s
Bit rate                                 : 183 kb/s
Channel(s)                               : 6 channels
Channel positions                        : Front: L C R, Side: L R, LFE
Sampling rate                            : 48.0 kHz / 24.0 kHz
Frame rate                               : 23.438 FPS (1024 spf)
Compression mode                         : Lossy
Delay relative to video                  : 31 ms
Stream size                              : 67.7 MiB (13%)
Language                                 : English
Default                                  : No
Forced                                   : No

Subtitle #1
ID                                       : 3
Format                                   : UTF-8
Codec ID                                 : S_TEXT/UTF8
Codec ID/Info                            : UTF-8 Plain Text
Duration                                 : 6 min 1 s
Bit rate                                 : 6 b/s
Count of elements                        : 17
Stream size                              : 305 Bytes (0%)
Language                                 : English
Default                                  : No
Forced                                   : Yes

Subtitle #2
ID                                       : 4
Format                                   : UTF-8
Codec ID                                 : S_TEXT/UTF8
Codec ID/Info                            : UTF-8 Plain Text
Duration                                 : 51 min 20 s
Bit rate                                 : 46 b/s
Count of elements                        : 667
Stream size                              : 17.6 KiB (0%)
Language                                 : English
Default                                  : No
Forced                                   : No

Subtitle #3
ID                                       : 5
Format                                   : UTF-8
Codec ID                                 : S_TEXT/UTF8
Codec ID/Info                            : UTF-8 Plain Text
Duration                                 : 51 min 20 s
Bit rate                                 : 46 b/s
Count of elements                        : 680
Stream size                              : 17.7 KiB (0%)
Language                                 : English
Default                                  : No
Forced                                   : No

Subtitle #4
ID                                       : 6
Format                                   : UTF-8
Codec ID                                 : S_TEXT/UTF8
Codec ID/Info                            : UTF-8 Plain Text
Duration                                 : 47 min 57 s
Bit rate                                 : 62 b/s
Count of elements                        : 511
Stream size                              : 21.8 KiB (0%)
Language                                 : Arabic
Default                                  : No
Forced                                   : No

Subtitle #5
ID                                       : 7
Format                                   : UTF-8
Codec ID                                 : S_TEXT/UTF8
Codec ID/Info                            : UTF-8 Plain Text
Duration                                 : 47 min 57 s
Bit rate                                 : 33 b/s
Count of elements                        : 511
Stream size                              : 11.8 KiB (0%)
Language                                 : Chinese
Default                                  : No
Forced                                   : No

Subtitle #6
ID                                       : 8
Format                                   : UTF-8
Codec ID                                 : S_TEXT/UTF8
Codec ID/Info                            : UTF-8 Plain Text
Duration                                 : 47 min 57 s
Bit rate                                 : 33 b/s
Count of elements                        : 511
Stream size                              : 11.8 KiB (0%)
Language                                 : Chinese
Default                                  : No
Forced                                   : No

Subtitle #7
ID                                       : 9
Format                                   : UTF-8
Codec ID                                 : S_TEXT/UTF8
Codec ID/Info                            : UTF-8 Plain Text
Duration                                 : 47 min 20 s
Bit rate                                 : 38 b/s
Count of elements                        : 504
Stream size                              : 13.3 KiB (0%)
Language                                 : Danish
Default                                  : No
Forced                                   : No

Subtitle #8
ID                                       : 10
Format                                   : UTF-8
Codec ID                                 : S_TEXT/UTF8
Codec ID/Info                            : UTF-8 Plain Text
Duration                                 : 47 min 21 s
Bit rate                                 : 38 b/s
Count of elements                        : 393
Stream size                              : 13.4 KiB (0%)
Language                                 : German
Default                                  : No
Forced                                   : No

Subtitle #9
ID                                       : 11
Format                                   : UTF-8
Codec ID                                 : S_TEXT/UTF8
Codec ID/Info                            : UTF-8 Plain Text
Duration                                 : 47 min 20 s
Bit rate                                 : 39 b/s
Count of elements                        : 507
Stream size                              : 13.6 KiB (0%)
Language                                 : Spanish
Default                                  : No
Forced                                   : No

Subtitle #10
ID                                       : 12
Format                                   : UTF-8
Codec ID                                 : S_TEXT/UTF8
Codec ID/Info                            : UTF-8 Plain Text
Duration                                 : 47 min 20 s
Bit rate                                 : 39 b/s
Count of elements                        : 507
Stream size                              : 13.6 KiB (0%)
Language                                 : Spanish
Default                                  : No
Forced                                   : No

Subtitle #11
ID                                       : 13
Format                                   : UTF-8
Codec ID                                 : S_TEXT/UTF8
Codec ID/Info                            : UTF-8 Plain Text
Duration                                 : 47 min 20 s
Bit rate                                 : 34 b/s
Count of elements                        : 498
Stream size                              : 11.9 KiB (0%)
Language                                 : Finnish
Default                                  : No
Forced                                   : No

Subtitle #12
ID                                       : 14
Format                                   : UTF-8
Codec ID                                 : S_TEXT/UTF8
Codec ID/Info                            : UTF-8 Plain Text
Duration                                 : 47 min 20 s
Bit rate                                 : 38 b/s
Count of elements                        : 492
Stream size                              : 13.3 KiB (0%)
Language                                 : French
Default                                  : No
Forced                                   : No

Subtitle #13
ID                                       : 15
Format                                   : UTF-8
Codec ID                                 : S_TEXT/UTF8
Codec ID/Info                            : UTF-8 Plain Text
Duration                                 : 47 min 57 s
Bit rate                                 : 105 b/s
Count of elements                        : 511
Stream size                              : 37.2 KiB (0%)
Language                                 : Hindi
Default                                  : No
Forced                                   : No

Subtitle #14
ID                                       : 16
Format                                   : UTF-8
Codec ID                                 : S_TEXT/UTF8
Codec ID/Info                            : UTF-8 Plain Text
Duration                                 : 47 min 20 s
Bit rate                                 : 34 b/s
Count of elements                        : 507
Stream size                              : 12.1 KiB (0%)
Language                                 : Indonesian
Default                                  : No
Forced                                   : No

Subtitle #15
ID                                       : 17
Format                                   : UTF-8
Codec ID                                 : S_TEXT/UTF8
Codec ID/Info                            : UTF-8 Plain Text
Duration                                 : 47 min 20 s
Bit rate                                 : 37 b/s
Count of elements                        : 507
Stream size                              : 13.0 KiB (0%)
Language                                 : Italian
Default                                  : No
Forced                                   : No

Subtitle #16
ID                                       : 18
Format                                   : UTF-8
Codec ID                                 : S_TEXT/UTF8
Codec ID/Info                            : UTF-8 Plain Text
Duration                                 : 47 min 20 s
Bit rate                                 : 40 b/s
Count of elements                        : 510
Stream size                              : 14.2 KiB (0%)
Language                                 : Korean
Default                                  : No
Forced                                   : No

Subtitle #17
ID                                       : 19
Format                                   : UTF-8
Codec ID                                 : S_TEXT/UTF8
Codec ID/Info                            : UTF-8 Plain Text
Duration                                 : 47 min 20 s
Bit rate                                 : 37 b/s
Count of elements                        : 507
Stream size                              : 13.2 KiB (0%)
Language                                 : Norwegian Bokmal
Default                                  : No
Forced                                   : No

Subtitle #18
ID                                       : 20
Format                                   : UTF-8
Codec ID                                 : S_TEXT/UTF8
Codec ID/Info                            : UTF-8 Plain Text
Duration                                 : 47 min 20 s
Bit rate                                 : 36 b/s
Count of elements                        : 505
Stream size                              : 12.6 KiB (0%)
Language                                 : Dutch
Default                                  : No
Forced                                   : No

Subtitle #19
ID                                       : 21
Format                                   : UTF-8
Codec ID                                 : S_TEXT/UTF8
Codec ID/Info                            : UTF-8 Plain Text
Duration                                 : 47 min 20 s
Bit rate                                 : 36 b/s
Count of elements                        : 495
Stream size                              : 12.7 KiB (0%)
Language                                 : Polish
Default                                  : No
Forced                                   : No

Subtitle #20
ID                                       : 22
Format                                   : UTF-8
Codec ID                                 : S_TEXT/UTF8
Codec ID/Info                            : UTF-8 Plain Text
Duration                                 : 47 min 20 s
Bit rate                                 : 37 b/s
Count of elements                        : 507
Stream size                              : 13.0 KiB (0%)
Language                                 : Portuguese
Default                                  : No
Forced                                   : No

Subtitle #21
ID                                       : 23
Format                                   : UTF-8
Codec ID                                 : S_TEXT/UTF8
Codec ID/Info                            : UTF-8 Plain Text
Duration                                 : 47 min 57 s
Bit rate                                 : 66 b/s
Count of elements                        : 510
Stream size                              : 23.2 KiB (0%)
Language                                 : Russian
Default                                  : No
Forced                                   : No

Subtitle #22
ID                                       : 24
Format                                   : UTF-8
Codec ID                                 : S_TEXT/UTF8
Codec ID/Info                            : UTF-8 Plain Text
Duration                                 : 47 min 20 s
Bit rate                                 : 38 b/s
Count of elements                        : 508
Stream size                              : 13.4 KiB (0%)
Language                                 : Swedish
Default                                  : No
Forced                                   : No

Subtitle #23
ID                                       : 25
Format                                   : UTF-8
Codec ID                                 : S_TEXT/UTF8
Codec ID/Info                            : UTF-8 Plain Text
Duration                                 : 47 min 57 s
Bit rate                                 : 106 b/s
Count of elements                        : 511
Stream size                              : 37.5 KiB (0%)
Language                                 : Tamil
Default                                  : No
Forced                                   : No

Subtitle #24
ID                                       : 26
Format                                   : UTF-8
Codec ID                                 : S_TEXT/UTF8
Codec ID/Info                            : UTF-8 Plain Text
Duration                                 : 47 min 57 s
Bit rate                                 : 111 b/s
Count of elements                        : 509
Stream size                              : 39.1 KiB (0%)
Language                                 : Telugu
Default                                  : No
Forced                                   : No

Subtitle #25
ID                                       : 27
Format                                   : UTF-8
Codec ID                                 : S_TEXT/UTF8
Codec ID/Info                            : UTF-8 Plain Text
Duration                                 : 47 min 20 s
Bit rate                                 : 36 b/s
Count of elements                        : 507
Stream size                              : 12.6 KiB (0%)
Language                                 : Turkish
Default                                  : No
Forced                                   : No

Menu
00:00:00.000                             : en:Amazon Original
00:00:05.000                             : en:The hunt for Hanna
00:01:25.000                             : en:Title Sequence
00:01:31.000                             : en:Some instincts never leave you
00:04:56.000                             : en:An awkward moment for Sophie
00:08:50.000                             : en:Erik's torture continues
00:10:30.000                             : en:Hanna confesses
00:19:08.000                             : en:A deal is offered to Hanna
00:25:22.000                             : en:Marissa wants everything back the way it was
00:28:24.000                             : en:Sophie seeks the truth
00:33:54.000                             : en:It's nothing personal
00:34:54.000                             : en:Unique just means alone
00:36:47.000                             : en:Erik hunts down the truth
00:39:51.000                             : en:Anxiously awaiting the next step
00:45:07.000                             : en:Chaos at the hotel
00:49:13.000                             : en:Training at the facility
00:49:50.000                             : en:End Credits



Source InformationRelease:
Hanna.S01.2160p.AMZN.WEBRip.x265.10bit.HDR.DDP5.1-TrollUHD  (39.5 GB)



Category:TV > HEVC/x265
Lang:English  English
Total Size:3.98 GB
Info Hash:2214479858295496f25aee521b112fc41154f2ee
Added By:UTR
Date Added:15-04-2019 14:40:42

Files

File List: 
 File Size
Encoded by JoyBell (UTR).txt2.73 kB
folder.jpg12.49 kB
Hanna S01E01 Forest (1080p x265 10bit Joy).mkv490 MB
Hanna S01E02 Friend (1080p x265 10bit Joy).mkv469 MB
Hanna S01E03 City (1080p x265 10bit Joy).mkv537 MB
Hanna S01E04 Father (1080p x265 10bit Joy).mkv554 MB
Hanna S01E05 Town (1080p x265 10bit Joy).mkv535 MB
Hanna S01E06 Mother (1080p x265 10bit Joy).mkv513 MB
Hanna S01E07 Road (1080p x265 10bit Joy).mkv497 MB
Hanna S01E08 Utrax (1080p x265 10bit Joy).mkv484 MB
How to play HEVC (THIS FILE).txt3.42 kB
Ninite K-Lite Codecs Unattended Silent Installer and Updater.website561.00 B



Loading...
Comments

There are currently no comments. Be the first one to write something !