little 2019 alita battle angel 2019 men in black international 2019 dc week shazam 2019 aew the lion king 2019 dark phoenix 2019 once upon a time in hollywood 2019 yesterday 2019 evo etrg annabelle comes home 2019 john wick John Wick 3 midsommar 2019 dumbo 2019 childs play 2019 FORMULA ettv spider man far from home 2019 i got the hook up 2 2019 chernobyl stranger things arrow español john wick chapter 3 – parabellum 2019 stuber 2019 Hellboy 2019 kabir singh ma 2019 Xxx ethd point blank 2019 aladdin 2019 harry potter 0 yts crawl 2019 ddr marvels agents of shield s06e09 the rook godzilla king of the monsters 2019 nascar star trek discovery español captain marvel 2019 the dead dont die 2019 shaft 2019 us 2019 swamp thing s01e07 formula 1 pokemon detective pikachu 2019 avengers endgame 2019 DDR aquaman 2018 rocketman 2019 yellowstone s02e03 avengers endgame brightburn 2019 f1 2.0 (2018) alita super 30 toy story 4 2019 etmovies hindi ufc the intruder 2019 swamp thing shazam escape plan the extractors 2019 the secret life of pets 2 2019 pet sematary 2019 anna 2019 
Warning! Use a VPN When Downloading Torrents!
Your IP Address is 35.171.183.163. Location is United States
Your Internet Provider is tracking your torrent activity! Hide your IP ADDRESS with a VPN!
We strongly recommend using ExpressVPN to anonymize your torrenting. 30 Day Money Back Guarantee!
Try it Now!
ETTV Recommended TV Shows
Euphoria.US.S01E05.WEB.h264-TBS[ettv] torrent
Big.Little.Lies.S02E06.WEB.h264-TBS[ettv] torrent
Instinct.US.S02E03.720p.HDTV.x264-AVS[ettv] torrent
WWE Extreme Rules 2019 PPV WEB h264-HEEL [TJET] torrent

ETTV Recommended SD
The.Intruder.2019.HDRip.AC3.x264-CMRG[EtMovies] torrent
SGT.Will.Gardner.2019.BRRip.XviD.AC3-EVO torrent
The.Cleansing.2019.HDRip.AC3.x264-CMRG[EtMovies] torrent
Hellboy.2019.BDRip.XviD.AC3-EVO[EtMovies] torrent

ETTV Recommended HD
John Wick Chapter 2 (2017)-Keanu Reeves-1080p-H264-AC 3 (DolbyDigital-5.1) & nickarad torrent
Alita.Battle.Angel.2019.Multi.1080p.Blu-ray.HEVC.DTS-HD.MA.7.1-DDR[EtHD] torrent
Poms.2019.1080p.NF.WEB-DL.DDP5.1.x264-NTG[EtHD] torrent
Hellboy.2019.1080p.Bluray.X264-EVO[EtHD] torrent

ETTV Recommended UHD
Shazam! 2019.Multi.UHD.BluRay.2160p.HDR.HEVC.Atmos.7.1[En+Hindi++]-DDR torrent
Hulk 2003.MULTi.Blu-ray.2160.HDR.HEVC.DTS-X.7.1-DDR torrent
Water World 1995.MULTi.Blu-ray.2160p.HEVC.HDR.DTS-X.7.1-DDR torrent
Alita Battle Angel 2019.MULTi.UHD.BluRay.2160p.HDR.Atmos.7.1.HEVC[EN+Hindi++]-DDR.mkv torrent

ETTV Recommended Cam
Yesterday 2019 720p HDCAM-1XBET torrent
Spider-Man Far From Home 2019 NEW 720p HD-TC NO ADS-1XBET torrent
Crawl 2019 720p HDCAM-1XBET torrent
Stuber 2019 720p HDCAM-1XBET torrent

ETTV Recommended Foreign
Sophia.Antipolis.2018.1080p.FRA.WEB-Rip.AAC2.0.HEVC-DDR[EtHD] torrent
Alita: Battle Angel - Alita: Angelo della battaglia (2019).720p.H264.ita.eng.Ac3-5.1.sub.ita.eng-MIRCrew torrent
Devi.2016.1080p.WEB-DL.AVC.AAC.DDR torrent
Kalakalappu 2.2018.1080p.WEB-DL.AVC.AAC.ESub.DDR torrent


Download Torrent "Gully Boy (2019) 576p AMZN WEB-DL DDP 5.1 ESub - DusIcTv"

IMDB Details
Description:

A coming-of-age story based on the lives of street rappers in Mumbai.

Genre:

Drama, Music

Download Torrent (Magnet)
Download Torrent (File)
Seeds: 220
Leechers: 33
Completed: 740 
Last Checked: 15-04-2019 20:19:22


Loading...
Details
Title:Gully Boy (2019) 576p AMZN WEB-DL DDP 5.1 ESub - DusIcTv
Description:
Note:Our Public website Bwt.pw

Soon Private Site BWTorrents.tv also coming.

---------------------------------------------------------

---------------------------------------------------------




Gully Boy (2019) 576p AMZN WEB-DL DDP 5.1 ESub - DusIcTv


General
Complete name                            : Gully Boy (2019) 576p AMZN WEB-DL DDP 5.1 ESub - DusIcTv.mkv
Format                                   : Matroska
Format version                           : Version 4 / Version 2
File size                                : 1.92 GiB
Duration                                 : 2 h 34 min
Overall bit rate                         : 1 785 kb/s
Encoded date                             : UTC 2019-04-15 18:56:47
Writing application                      : mkvmerge v32.0.0 ('Astral Progressions') 64-bit
Writing library                          : libebml v1.3.7 + libmatroska v1.5.0

Video
ID                                       : 1
Format                                   : AVC
Format/Info                              : Advanced Video Codec
Format profile                           : [email protected]
Format settings                          : CABAC / 5 Ref Frames
Format settings, CABAC                   : Yes
Format settings, RefFrames               : 5 frames
Codec ID                                 : V_MPEG4/ISO/AVC
Duration                                 : 2 h 34 min
Bit rate                                 : 1 143 kb/s
Width                                    : 960 pixels
Height                                   : 440 pixels
Display aspect ratio                     : 2.2:1
Frame rate mode                          : Constant
Frame rate                               : 24.000 FPS
Color space                              : YUV
Chroma subsampling                       : 4:2:0
Bit depth                                : 8 bits
Scan type                                : Progressive
Bits/(Pixel*Frame)                       : 0.113
Stream size                              : 1.23 GiB (64%)
Default                                  : Yes
Forced                                   : No
Color range                              : Limited
Color primaries                          : BT.709
Transfer characteristics                 : BT.709
Matrix coefficients                      : BT.709

Audio
ID                                       : 2
Format                                   : E-AC-3
Format/Info                              : Enhanced Audio Coding 3
Codec ID                                 : A_EAC3
Duration                                 : 2 h 34 min
Bit rate mode                            : Constant
Bit rate                                 : 640 kb/s
Channel(s)                               : 6 channels
Channel positions                        : Front: L C R, Side: L R, LFE
Sampling rate                            : 48.0 kHz
Frame rate                               : 187.500 FPS (256 SPF)
Compression mode                         : Lossy
Stream size                              : 706 MiB (36%)
Title                                    : Hindi
Language                                 : Hindi
Service kind                             : Complete Main
Default                                  : No
Forced                                   : No

Text
ID                                       : 3
Format                                   : UTF-8
Codec ID                                 : S_TEXT/UTF8
Codec ID/Info                            : UTF-8 Plain Text
Duration                                 : 2 h 26 min
Bit rate                                 : 53 b/s
Count of elements                        : 2035
Stream size                              : 57.8 KiB (0%)
Title                                    : English [Full]
Language                                 : English
Default                                  : Yes
Forced                                   : No










- 576p WEBHD, 5.1 audio & Dnglish Subtitle!
- Enjoy DUS & ICTV Exclusive Release!


In case of re-seed on any torrent, please pm.
If you share this torrent anywhere, give credits to LP1 @ DusIcTv.
Category:Movies > X264/H264
Lang:Hindi  Hindi
Total Size:1.92 GB
Info Hash:30657cb9ba9856bc8bca65e1b52ab4e83cffd31d
Added By:Dus
Date Added:15-04-2019 20:19:09

  

Files

File List: 
 File Size
BWT.pw.txt25.00 B
BWTorrents.tv.txt34.00 B
Gully Boy (2019) 576p AMZN WEB-DL DDP 5.1 ESub - DusIcTv.mkv1.92 GB



Loading...
Comments

There are currently no comments. Be the first one to write something !