snowfall s03e02 big brother s21e10 rocketman 2019 toy story 4 2019 the inbetween s01e06 annabelle comes home 2019 suits s09e01 aladdin 2019 shazam 2019 2.0 (2018) big little lies s02e06 the lion king 2019 Suits  wwe Stranger things krypton hellboy 2019 ettv dc week proper pandora s01e01 krypton s02e06 big bang theory español yesterday 2019 captain marvel 2019 endgame anna 2019 xxx dumbo 2019 godzilla king of the monsters 2019 avengers endgame 2019 ddr kabir singh Shazam shaft 2019 dark phoenix 2019 midsommar 2019 John wick stuber 2019 alita battle angel 2019 John wick 3 hindi archer animal kingdom s04e08 spider man far from home 2019 evo childs play 2019 etrg the intruder 2019 big little lies us 2019 the handmaids tale s03e09 ethd alita yellowstone s02e04 The Handmaids Tale hellboy yellowstone long shot 2019 the 100 s06e10 once upon a time in hollywood 2019 The 100 men in black international 2019 brightburn 2019 john wick chapter 3 – parabellum 2019 avengers endgame pearson s01e01 DDR ma 2019 yts etmovies crawl 2019 arrow español 
Warning! Use a VPN When Downloading Torrents!
Your IP Address is 35.171.183.163. Location is United States
Your Internet Provider is tracking your torrent activity! Hide your IP ADDRESS with a VPN!
We strongly recommend using ExpressVPN to anonymize your torrenting. 30 Day Money Back Guarantee!
Try it Now!
ETTV Recommended TV Shows
Krypton.S02E06.HDTV.x264-SVA[ettv] torrent
Suits.S09E01.WEB.x264-TBS[ettv] torrent
Pearson.S01E01.WEB.x264-TBS[ettv] torrent
Pose.S02E05.REPACK.WEB.H264-MEMENTO[ettv] torrent
The.InBetween.S01E06.HDTV.x264-KILLERS[ettv] torrent
Yellowstone.2018.S02E04.WEBRip.x264-KOMPOST[ettv] torrent

ETTV Recommended SD
The.Intruder.2019.HDRip.XViD-ETRG torrent
Secret.Obsession.2019.HDRip.XviD.AC3-EVO torrent
El.Chicano.2019.DVDRip.XviD.AC3-EVO torrent
Union.Bound.2019.HDRip.XviD.AC3-EVO torrent

ETTV Recommended HD
Dark.Deadly.and.Dreadful.2019.1080p.AMZN.WEB-Rip.DDP2.0.HEVC-DDR[EtHD] torrent
Secret.Obsession.2019.MULTI.1080p.WEB.Rip.DDP.5.1.HEVC-DDR[EtHD] torrent
Fast.Color.2018.BluRay.1080p.DTS-HD.MA.5.1.HEVC-DDR[EtHD] torrent
Union.Bound.2019.1080p.AMZN.WEB-DL.DDP2.0.H264-CMRG[EtHD] torrent

ETTV Recommended UHD
Shazam! 2019.Multi.UHD.BluRay.2160p.HDR.HEVC.Atmos.7.1[En+Hindi++]-DDR torrent
Alita Battle Angel 2019.MULTi.UHD.BluRay.2160p.HDR.Atmos.7.1.HEVC[EN+Hindi++]-DDR.mkv torrent
Hellboy 2019.MULTi.UHD.BluRay.2160p.HDR.Atmos.7.1.HEVC-DDR torrent
Breakthrough 2019.MULTi.UHD.BluRay.2160p.HEVC.DTS-HD.MA7.1.[En+Hindi+Fr+Sp+Ur+Tur]-DDR torrent

ETTV Recommended Cam
Crawl 2019 720p HDCAM-1XBET torrent
Stuber 2019 720p HDCAM-1XBET torrent
Spider-Man Far From Home 2019 HD-TC x264 AC3-ETRG torrent
The Lion King 2019 720p HDCAM-1XBET torrent

ETTV Recommended Foreign
Alita:Battle.Angel.(2019).[1080p].[Dual.Audio].[Org.BD].{Hindi+Eng.6Ch}.-~{DOOMSDAY}~-. torrent
Hum Hain Rahi Pyar Ke.1993.1080p.WEB-DL.AVC.AAC.DDR torrent
The.Dark.Knight.(2008).[IMAX.1080p].[Dual.Audio].[Org.DD].{Hindi.2.0+Eng.6Ch}.-~{DOOMSDAY}~-. torrent
The.Beast.2019.HDRip.720p-Mkvking torrent


Download Torrent "Junoon (1992) Hindi 1080p Untouched WebHD AVC {Music Video} ESuBS By-DusIcT..."

IMDB Details
Description:

Tells the story of Vikram (Rahul Roy), who after nearly getting killed by a cursed tiger starts to transform into a tiger himself every fullmoon and hunts for prey.

Genre:

Horror, Thriller

Download Torrent (Magnet)
Download Torrent (File)
Seeds: 75
Leechers: 29
Completed: 125 
Last Checked: 15-04-2019 22:41:11


Loading...
Details
Title:Junoon (1992) Hindi 1080p Untouched WebHD AVC {Music Video} ESuBS By-DusIcT...
Description:



Junoon (1992) Hindi 1080p Untouched WebHD AVC {Music Video} ESuBS By-DusIcTv

Media info
Format                         : Matroska
Format version                 : Version 4
File size                      : 2.23 GB
Overall bit rate               : 10.6 Mb/s
Writing library : libebml v1.3.6 + libmatroska v1.4.9


Video
ID                             : 1
Format                         : AVC
Format/Info                    : Advanced Video Codec
Format profile                 : [email protected]
Format settings                : CABAC / 2 Ref Frames
Format settings, CABAC         : Yes
Format settings, ReFrames      : 2 frames
Codec ID                       : V_MPEG4/ISO/AVC
Bit rate mode                  : Constant
Bit rate                       : 10.4 Mb/s
Width                          : 1 920 pixels
Height                         : 1 080 pixels
Display aspect ratio           : 16:9
Frame rate mode                : Constant
Frame rate                     : 29.970 (30000/1001) FPS
Color space                    : YUV
Chroma subsampling             : 4:2:0
Bit depth                      : 8 bits
Scan type                      : Progressive
Bits/(Pixel*Frame)             : 0.167
Stream size                    : 339 MiB (98%)
Default                        : Yes
Forced                         : No


Audio
ID                             : 2
Format                         : AAC LC
Format/Info                    : Advanced Audio Codec
Codec ID                       : A_AAC-2
Bit rate                       : 192 kb/s
Channel(s)                     : 2 channels
Channel layout                 : L R
Sampling rate                  : 48.0 kHz
Frame rate                     : 46.875 FPS (1024 SPF)
Compression mode               : Lossy
Delay relative to video        : 3 ms
Stream size                    : 6.27 MiB (2%)
Default                        : Yes
Forced                         : No

|Note-----------------------------> We have https://bwt.pw/index.php

ScreenShot













This Movie Songs Rip By @Special26


==========================================================
Note: We have moved to ---->> https://bwt.pw/index.php 
==========================================================

Request here for the song of any movie  https://bwt.pw/mailbox.php?compose&id=5



Don't Forget To Give Comments And Thanks...
Category:Music > Music Videos
Lang:Hindi  Hindi
Total Size:2.23 GB
Info Hash:eb32ca431fe2b288b2452799fca59a55fde98e0c
Added By:Dus
Date Added:15-04-2019 22:41:11

Files

File List: 
 File Size
01.Deewaron Pe Likha Hai.mkv345 MB
02.Zamane Ki Buraai Mujh Mein Hai Sanam.mkv313 MB
03.Milte Milte Haseen Wadiyon Mein.mkv414 MB
04.Waqt Kate Nahin Kat Ta Hai.mkv322 MB
05.Prem Prem O Meri Dilruba.mkv420 MB
06.Tu Mera Meherban.mkv327 MB
07.Deewaron Pe Likha Hai (End).mkv145 MB



Loading...
Comments

There are currently no comments. Be the first one to write something !