queen of the south s04e07 money heist elementary once upon a time in hollywood 2019 the secret life of pets 2 2019 etrg yts Ettv ddr yellowstone hellboy 2019 ethd john wick 3 shazam 2019 Krypton the handmaids tale s03e09 the lion king 2019 aladdin 2019 long shot 2019 suits Crawl 2019 rocketman 2019 siren s02e14 the lion king swamp thing s01e08 us 2019 Siren hindi suits s09e01 avengers endgame 2019 shaft 2019 2.0 (2018) ma 2019 La casa de papel kabir singh dumbo 2019 swamp thing la casa di carta annabelle comes home 2019 John wick midsommar 2019 the 100 childs play 2019 the intruder 2019 yesterday 2019 avengers endgame big brother s21e11 queen of the south etmovies brightburn 2019 john wick chapter 3 – parabellum 2019 captain marvel 2019 dark phoenix 2019 xxx stranger things elementary s07e09 snowfall s03e02 evo alita battle angel 2019 yellowstone s02e04 dc week stuber 2019 anna 2019 men in black international 2019 The Handmaids Tale la casa de papel season 3 shazam endgame spider man far from home 2019 godzilla king of the monsters 2019 toy story 4 2019 
Warning! Use a VPN When Downloading Torrents!
Your IP Address is 3.81.73.233. Location is United States
Your Internet Provider is tracking your torrent activity! Hide your IP ADDRESS with a VPN!
We strongly recommend using ExpressVPN to anonymize your torrenting. 30 Day Money Back Guarantee!
Try it Now!
ETTV Recommended TV Shows
Fear.the.Walking.Dead.S05E08.WEB.h264-TBS[ettv] torrent
Marvels.Agents.of.S.H.I.E.L.D.S06E10.HDTV.x264-SVA[ettv] torrent
Jett.S01E06.WEBRip.x264-TBS[ettv] torrent
Killjoys.S05E01.WEB.x264-TBS[ettv] torrent

ETTV Recommended SD
El.Chicano.2019.DVDRip.XviD.AC3-EVO torrent
Purge.Of.Kingdoms.2019.HDRip.AC3.x264-CMRG[EtMovies] torrent
Supervized.2019.HDRip.XviD.AC3-EVO[EtMovies] torrent
The.Big.Bad.Fox.And.Other.Tales.2019.HDRip.XviD.AC3-EVO[EtMovies] torrent

ETTV Recommended HD
Above the Shadows.2019.1080p.WEB-DL.H264.AC3-EVO[EtHD] torrent
Bottom.of.the.9th.2019.1080p.WEB-DL.DD5.1.H264-CMRG[EtHD] torrent
Into.the.Ashes.2019.1080p.WEB-DL.DD5.1.H264-CMRG[EtHD] torrent
Sword.Of.Trust.2019.1080p.WEB-DL.H264.AC3-EVO[EtHD] torrent

ETTV Recommended UHD
Hellboy 2019.MULTi.UHD.BluRay.2160p.HDR.Atmos.7.1.HEVC-DDR torrent
Breakthrough 2019.MULTi.UHD.BluRay.2160p.HEVC.DTS-HD.MA7.1.[En+Hindi+Fr+Sp+Ur+Tur]-DDR torrent
The Quake 2018.MULTI.2160p.HDR.WEBRip.DTS-HDMA.5.1.HEVC-DDR torrent
Moon 2009.MULTi.UHD.Blu-ray.2160p.HDR.Atmos.7.1.HEVC-DDR torrent

ETTV Recommended Cam
Crawl 2019 720p HDCAM-1XBET torrent
Stuber 2019 720p HDCAM-1XBET torrent
Spider-Man Far From Home 2019 HD-TC x264 AC3-ETRG torrent
The Lion King 2019 HDCAM x264 AC3-ETRG torrent

ETTV Recommended Foreign
The.Beast.2019.HDRip.720p-Mkvking torrent
Indias Most Wanted (2019) Hindi 720p HDRip x264 AAC ESubs -UnknownStAr [Telly] torrent
The Rescuers (1977) x264 720p BluRay Eng Subs {Dual Audio} [Hindi ORG DD 2.0 + English 2.0] Exclusive By DREDD torrent
Jhootha Kahin Ka (2019) 480p PreDVD Rip x264 700MB AAC CineVood Exclusive torrent


Download Torrent "Modern Family S10E21 Commencement 1080p AMZN Webrip x265 EAC3 5.1 - Goki [S..."

IMDB Details
Description:

N/A

Genre:

N/A

Download Torrent (Magnet)
Download Torrent (File)
Seeds: 171
Leechers: 38
Completed: 2,099 
Last Checked: 02-05-2019 23:32:21


Loading...
Details
Title:Modern Family S10E21 Commencement 1080p AMZN Webrip x265 EAC3 5.1 - Goki [S...
Description:









Media Information

Unique ID                                : 337901401861888689638432473503203929013 (0xFE35715BF8B3DA3579A518F275152BB5)
Complete name                            : Modern Family S10E21 Commencement 1080p AMZN Webrip x265 EAC3 5.1 - Goki [SEV].mkv
Format                                   : Matroska
Format version                           : Version 4
File size                                : 806 MiB
Duration                                 : 21 min 33 s
Overall bit rate                         : 5 225 kb/s
Movie name                               : Modern Family S10E21 Commencement 1080p AMZN Webrip x265 EAC3 5.1 - Goki [SEV]
Encoded date                             : UTC 2019-05-02 22:05:56
Writing application                      : mkvmerge v28.2.0 ('The Awakening') 64-bit
Writing library                          : libebml v1.3.6 + libmatroska v1.4.9

Video
ID                                       : 1
Format                                   : HEVC
Format/Info                              : High Efficiency Video Coding
Format profile                           : Main [email protected]@Main
Codec ID                                 : V_MPEGH/ISO/HEVC
Duration                                 : 21 min 33 s
Bit rate                                 : 4 583 kb/s
Width                                    : 1 920 pixels
Height                                   : 1 080 pixels
Display aspect ratio                     : 16:9
Frame rate mode                          : Constant
Frame rate                               : 23.976 (24000/1001) FPS
Color space                              : YUV
Chroma subsampling                       : 4:2:0
Bit depth                                : 10 bits
Bits/(Pixel*Frame)                       : 0.092
Stream size                              : 707 MiB (88%)
Writing library                          : x265 2.9+8-27d8424c799d:[Windows][MSVC 1915][64 bit] 10bit
Encoding settings                        : cpuid=1111039 / frame-threads=3 / numa-pools=8 / wpp / no-pmode / no-pme / no-psnr / no-ssim / log-level=2 / input-csp=1 / input-res=1920x1080 / interlace=0 / total-frames=0 / level-idc=0 / high-tier=1 / uhd-bd=0 / ref=4 / no-allow-non-conformance / no-repeat-headers / annexb / no-aud / no-hrd / info / hash=0 / no-temporal-layers / open-gop / min-keyint=23 / keyint=250 / gop-lookahead=0 / bframes=8 / b-adapt=2 / b-pyramid / bframe-bias=0 / rc-lookahead=100 / lookahead-slices=4 / scenecut=40 / radl=0 / no-intra-refresh / ctu=64 / min-cu-size=8 / no-rect / no-amp / max-tu-size=32 / tu-inter-depth=1 / tu-intra-depth=1 / limit-tu=0 / rdoq-level=2 / dynamic-rd=0.00 / no-ssim-rd / signhide / no-tskip / nr-intra=0 / nr-inter=0 / no-constrained-intra / no-strong-intra-smoothing / max-merge=3 / limit-refs=3 / limit-modes / me=3 / subme=5 / merange=57 / temporal-mvp / weightp / no-weightb / no-analyze-src-pics / deblock=0:0 / sao / no-sao-non-deblock / rd=4 / no-early-skip / rskip / no-fast-intra / no-tskip-fast / no-cu-lossless / no-b-intra / no-splitrd-skip / rdpenalty=0 / psy-rd=1.30 / psy-rdoq=2.00 / no-rd-refine / no-lossless / cbqpoffs=0 / crqpoffs=0 / rc=crf / crf=20.0 / qcomp=0.60 / qpstep=4 / stats-write=0 / stats-read=0 / ipratio=1.40 / pbratio=1.30 / aq-mode=2 / aq-strength=1.10 / cutree / zone-count=0 / no-strict-cbr / qg-size=32 / no-rc-grain / qpmax=69 / qpmin=0 / no-const-vbv / sar=1 / overscan=0 / videoformat=5 / range=0 / colorprim=2 / transfer=2 / colormatrix=2 / chromaloc=0 / display-window=0 / max-cll=0,0 / min-luma=0 / max-luma=1023 / log2-max-poc-lsb=8 / vui-timing-info / vui-hrd-info / slices=1 / no-opt-qp-pps / no-opt-ref-list-length-pps / no-multi-pass-opt-rps / scenecut-bias=0.05 / no-opt-cu-delta-qp / no-aq-motion / no-hdr / no-hdr-opt / no-dhdr10-opt / no-idr-recovery-sei / analysis-reuse-level=5 / scale-factor=0 / refine-intra=0 / refine-inter=0 / refine-mv=0 / no-limit-sao / ctu-info=0 / no-lowpass-dct / refine-mv-type=0 / copy-pic=1 / max-ausize-factor=1.0 / no-dynamic-refine / no-single-sei
Language                                 : English
Default                                  : Yes
Forced                                   : No

Audio
ID                                       : 2
Format                                   : E-AC-3
Format/Info                              : Enhanced AC-3
Commercial name                          : Dolby Digital Plus
Codec ID                                 : A_EAC3
Duration                                 : 21 min 33 s
Bit rate mode                            : Constant
Bit rate                                 : 640 kb/s
Channel(s)                               : 6 channels
Channel layout                           : L R C LFE Ls Rs
Sampling rate                            : 48.0 kHz
Frame rate                               : 31.250 FPS (1536 SPF)
Compression mode                         : Lossy
Stream size                              : 98.7 MiB (12%)
Language                                 : English
Service kind                             : Complete Main
Default                                  : Yes
Forced                                   : No

Text
ID                                       : 3
Format                                   : UTF-8
Codec ID                                 : S_TEXT/UTF8
Codec ID/Info                            : UTF-8 Plain Text
Duration                                 : 21 min 24 s
Bit rate                                 : 128 b/s
Count of elements                        : 623
Stream size                              : 20.1 KiB (0%)
Language                                 : English
Default                                  : No
Forced                                   : No

Source
AMZN METCON


.........................................................................................................................................

We have no issue with individuals posting or re-uploading our torrents on a platform we aren't on. However, if this is something you'd like to do, please do so in a 'as-is' format. We ask that you do not create a new torrent, include all descriptions you see above including the SEV logo, tags, notes and screenshots. If you'd like to become a permanent poster on a website we don't post to, feel free to get in contact with a Sublime Encoded Video member.


We are recruiting/training new members for SEV & seedbox providers as well as people to help out with subtitles.
As you already know, we deliver quality, so you know the standard.
If you're interested, feel free to contact any of the team members.
Category:TV > HEVC/x265
Lang:English  English
Total Size:806 MB
Info Hash:28046e4b912020d2273048cfcee64620ed2dece1
Added By:Goki
Date Added:02-05-2019 23:32:18

Files

File List: 
 File Size
Modern Family S10E21 Commencement 1080p AMZN Webrip x265 EAC3 5.1 - Goki [SEV].mkv806 MB



Loading...
Comments

There are currently no comments. Be the first one to write something !