snowfall s03e02 big brother s21e10 rocketman 2019 toy story 4 2019 the inbetween s01e06 annabelle comes home 2019 suits s09e01 aladdin 2019 shazam 2019 2.0 (2018) big little lies s02e06 the lion king 2019 Suits  wwe Stranger things krypton hellboy 2019 ettv dc week proper pandora s01e01 krypton s02e06 big bang theory español yesterday 2019 captain marvel 2019 endgame anna 2019 xxx dumbo 2019 godzilla king of the monsters 2019 avengers endgame 2019 ddr kabir singh Shazam shaft 2019 dark phoenix 2019 midsommar 2019 John wick stuber 2019 alita battle angel 2019 John wick 3 hindi archer animal kingdom s04e08 spider man far from home 2019 evo childs play 2019 etrg the intruder 2019 big little lies us 2019 the handmaids tale s03e09 ethd alita yellowstone s02e04 The Handmaids Tale hellboy yellowstone long shot 2019 the 100 s06e10 once upon a time in hollywood 2019 The 100 men in black international 2019 brightburn 2019 john wick chapter 3 – parabellum 2019 avengers endgame pearson s01e01 DDR ma 2019 yts etmovies crawl 2019 arrow español 
Warning! Use a VPN When Downloading Torrents!
Your IP Address is 18.206.241.26. Location is United States
Your Internet Provider is tracking your torrent activity! Hide your IP ADDRESS with a VPN!
We strongly recommend using ExpressVPN to anonymize your torrenting. 30 Day Money Back Guarantee!
Try it Now!
ETTV Recommended TV Shows
Krypton.S02E06.HDTV.x264-SVA[ettv] torrent
Suits.S09E01.WEB.x264-TBS[ettv] torrent
Pearson.S01E01.WEB.x264-TBS[ettv] torrent
Pose.S02E05.REPACK.WEB.H264-MEMENTO[ettv] torrent
The.InBetween.S01E06.HDTV.x264-KILLERS[ettv] torrent
Yellowstone.2018.S02E04.WEBRip.x264-KOMPOST[ettv] torrent

ETTV Recommended SD
The.Intruder.2019.HDRip.XViD-ETRG torrent
Secret.Obsession.2019.HDRip.XviD.AC3-EVO torrent
El.Chicano.2019.DVDRip.XviD.AC3-EVO torrent
Union.Bound.2019.HDRip.XviD.AC3-EVO torrent

ETTV Recommended HD
Dark.Deadly.and.Dreadful.2019.1080p.AMZN.WEB-Rip.DDP2.0.HEVC-DDR[EtHD] torrent
Secret.Obsession.2019.MULTI.1080p.WEB.Rip.DDP.5.1.HEVC-DDR[EtHD] torrent
Fast.Color.2018.BluRay.1080p.DTS-HD.MA.5.1.HEVC-DDR[EtHD] torrent
Union.Bound.2019.1080p.AMZN.WEB-DL.DDP2.0.H264-CMRG[EtHD] torrent

ETTV Recommended UHD
Shazam! 2019.Multi.UHD.BluRay.2160p.HDR.HEVC.Atmos.7.1[En+Hindi++]-DDR torrent
Alita Battle Angel 2019.MULTi.UHD.BluRay.2160p.HDR.Atmos.7.1.HEVC[EN+Hindi++]-DDR.mkv torrent
Hellboy 2019.MULTi.UHD.BluRay.2160p.HDR.Atmos.7.1.HEVC-DDR torrent
Breakthrough 2019.MULTi.UHD.BluRay.2160p.HEVC.DTS-HD.MA7.1.[En+Hindi+Fr+Sp+Ur+Tur]-DDR torrent

ETTV Recommended Cam
Crawl 2019 720p HDCAM-1XBET torrent
Stuber 2019 720p HDCAM-1XBET torrent
Spider-Man Far From Home 2019 HD-TC x264 AC3-ETRG torrent
The Lion King 2019 720p HDCAM-1XBET torrent

ETTV Recommended Foreign
Alita:Battle.Angel.(2019).[1080p].[Dual.Audio].[Org.BD].{Hindi+Eng.6Ch}.-~{DOOMSDAY}~-. torrent
Hum Hain Rahi Pyar Ke.1993.1080p.WEB-DL.AVC.AAC.DDR torrent
The.Dark.Knight.(2008).[IMAX.1080p].[Dual.Audio].[Org.DD].{Hindi.2.0+Eng.6Ch}.-~{DOOMSDAY}~-. torrent
The.Beast.2019.HDRip.720p-Mkvking torrent


Download Torrent "True Blood (2008) Season 07 S07 (1080p BluRay x265 HEVC 10bit AAC 5.1 Joy) ..."

IMDB Details
Description:

Telepathic waitress Sookie Stackhouse encounters a strange new supernatural world when she meets the mysterious Bill, a southern Louisiana gentleman and vampire.

Genre:

Drama, Fantasy, Mystery, Romance, Thriller

Download Torrent (Magnet)
Download Torrent (File)
Seeds: 50
Leechers: 201
Completed: 44 
Last Checked: 05-05-2019 16:42:43


Loading...
Details
Title:True Blood (2008) Season 07 S07 (1080p BluRay x265 HEVC 10bit AAC 5.1 Joy) ...
Description:

Media Information
General
Format                                   : Matroska
Format version                           : Version 4 / Version 2
File size                                : 593 MiB
Duration                                 : 52 min 10 s
Overall bit rate                         : 1 590 kb/s
Movie name                               : True.Blood.S07E02.I.Found.You.1080p.BluRay.REMUX.AVC.DTS-HD.MA.5.1-EPSiLON  (1080p x265 10bit Joy)
Encoded date                             : UTC 2019-04-01 22:31:47
Writing application                      : mkvmerge v31.0.0 ('Dolores In A Shoestand') 64-bit
Writing library                          : libebml v1.3.6 + libmatroska v1.4.9
Writing frontend                         : StaxRip v2.0.0.1, Encoded by Joy Bell

Video
ID                                       : 1
Format                                   : HEVC
Format/Info                              : High Efficiency Video Coding
Format profile                           : Main [email protected]@Main
Codec ID                                 : V_MPEGH/ISO/HEVC
Duration                                 : 52 min 10 s
Bit rate                                 : 1 201 kb/s
Width                                    : 1 920 pixels
Height                                   : 1 080 pixels
Display aspect ratio                     : 16:9
Frame rate mode                          : Constant
Frame rate                               : 23.976 (24000/1001) FPS
Color space                              : YUV
Chroma subsampling                       : 4:2:0
Bit depth                                : 10 bits
Bits/(Pixel*Frame)                       : 0.024
Stream size                              : 448 MiB (76%)
Writing library                          : x265 3.0_Au+14-c7e5878bdd31:[Windows][MSVC 1916][64 bit] 10bit
Encoding settings                        : cpuid=1111039 / frame-threads=3 / numa-pools=12 / wpp / no-pmode / no-pme / no-psnr / ssim / log-level=2 / input-csp=1 / input-res=1920x1080 / interlace=0 / total-frames=75053 / level-idc=0 / high-tier=1 / uhd-bd=0 / ref=4 / no-allow-non-conformance / no-repeat-headers / annexb / no-aud / no-hrd / info / hash=0 / no-temporal-layers / open-gop / min-keyint=23 / keyint=250 / gop-lookahead=0 / bframes=8 / b-adapt=2 / b-pyramid / bframe-bias=40 / rc-lookahead=80 / lookahead-slices=4 / scenecut=40 / radl=0 / no-splice / no-intra-refresh / ctu=64 / min-cu-size=8 / no-rect / no-amp / max-tu-size=32 / tu-inter-depth=1 / tu-intra-depth=1 / limit-tu=0 / rdoq-level=2 / dynamic-rd=0.00 / ssim-rd / signhide / no-tskip / nr-intra=0 / nr-inter=0 / constrained-intra / strong-intra-smoothing / max-merge=3 / limit-refs=3 / limit-modes / me=3 / subme=3 / merange=57 / temporal-mvp / weightp / no-weightb / no-analyze-src-pics / deblock=0:0 / sao / no-sao-non-deblock / rd=4 / early-skip / rskip / no-fast-intra / no-tskip-fast / no-cu-lossless / no-b-intra / splitrd-skip / rdpenalty=0 / psy-rd=2.05 / psy-rdoq=0.95 / no-rd-refine / no-lossless / cbqpoffs=0 / crqpoffs=0 / rc=abr / bitrate=1200 / qcomp=0.60 / qpstep=4 / stats-write=0 / stats-read=2 / cplxblur=20.0 / qblur=0.5 / ipratio=1.40 / pbratio=1.30 / aq-mode=2 / aq-strength=0.80 / cutree / zone-count=0 / no-strict-cbr / qg-size=32 / no-rc-grain / qpmax=69 / qpmin=0 / no-const-vbv / sar=0 / overscan=0 / videoformat=5 / range=0 / colorprim=2 / transfer=2 / colormatrix=2 / chromaloc=0 / display-window=0 / max-cll=0,0 / min-luma=0 / max-luma=1023 / log2-max-poc-lsb=8 / vui-timing-info / vui-hrd-info / slices=1 / no-opt-qp-pps / no-opt-ref-list-length-pps / multi-pass-opt-rps / scenecut-bias=0.05 / no-opt-cu-delta-qp / no-aq-motion / no-hdr / no-hdr-opt / no-dhdr10-opt / no-idr-recovery-sei / analysis-reuse-level=10 / scale-factor=0 / refine-intra=0 / refine-inter=0 / refine-mv=0 / refine-ctu-distortion=0 / limit-sao / ctu-info=0 / no-lowpass-dct / refine-analysis-type=0 / copy-pic=1 / max-ausize-factor=1.0 / no-dynamic-refine / no-single-sei / no-hevc-aq / no-svt / qp-adaptation-range=1.00
Default                                  : Yes
Forced                                   : No

Audio #1
ID                                       : 2
Format                                   : AAC
Format/Info                              : Advanced Audio Codec
Format profile                           : HE-AAC / LC
Codec ID                                 : A_AAC
Duration                                 : 52 min 10 s
Bit rate                                 : 216 kb/s
Channel(s)                               : 6 channels
Channel positions                        : Front: L C R, Side: L R, LFE
Sampling rate                            : 48.0 kHz / 24.0 kHz
Frame rate                               : 23.438 FPS (1024 spf)
Compression mode                         : Lossy
Delay relative to video                  : 31 ms
Stream size                              : 80.7 MiB (14%)
Language                                 : English
Default                                  : No
Forced                                   : No

Audio #2
ID                                       : 3
Format                                   : AAC
Format/Info                              : Advanced Audio Codec
Format profile                           : HE-AAC / LC
Codec ID                                 : A_AAC
Duration                                 : 52 min 10 s
Bit rate                                 : 51.1 kb/s
Channel(s)                               : 2 channels
Channel positions                        : Front: L R
Sampling rate                            : 48.0 kHz / 24.0 kHz
Frame rate                               : 23.438 FPS (1024 spf)
Compression mode                         : Lossy
Delay relative to video                  : 31 ms
Stream size                              : 19.1 MiB (3%)
Title                                    : Commentary
Language                                 : English
Default                                  : No
Forced                                   : No

Subtitle #1
ID                                       : 4
Format                                   : PGS
Muxing mode                              : zlib
Codec ID                                 : S_HDMV/PGS
Codec ID/Info                            : Picture based subtitle format used on BDs/HD-DVDs
Duration                                 : 50 min 44 s
Bit rate                                 : 39.7 kb/s
Count of elements                        : 1422
Stream size                              : 14.4 MiB (2%)
Language                                 : English
Default                                  : No
Forced                                   : No

Subtitle #2
ID                                       : 5
Format                                   : PGS
Muxing mode                              : zlib
Codec ID                                 : S_HDMV/PGS
Codec ID/Info                            : Picture based subtitle format used on BDs/HD-DVDs
Duration                                 : 49 min 58 s
Bit rate                                 : 36.0 kb/s
Count of elements                        : 1286
Stream size                              : 12.9 MiB (2%)
Language                                 : Spanish
Default                                  : No
Forced                                   : No

Subtitle #3
ID                                       : 6
Format                                   : PGS
Muxing mode                              : zlib
Codec ID                                 : S_HDMV/PGS
Codec ID/Info                            : Picture based subtitle format used on BDs/HD-DVDs
Duration                                 : 49 min 58 s
Bit rate                                 : 39.1 kb/s
Count of elements                        : 1284
Stream size                              : 14.0 MiB (2%)
Language                                 : Portuguese
Default                                  : No
Forced                                   : No

Subtitle #4
ID                                       : 7
Format                                   : PGS
Muxing mode                              : zlib
Codec ID                                 : S_HDMV/PGS
Codec ID/Info                            : Picture based subtitle format used on BDs/HD-DVDs
Duration                                 : 49 min 58 s
Bit rate                                 : 39.4 kb/s
Count of elements                        : 1278
Stream size                              : 14.1 MiB (2%)
Language                                 : Dutch
Default                                  : No
Forced                                   : No

Subtitle #5
ID                                       : 8
Format                                   : PGS
Muxing mode                              : zlib
Codec ID                                 : S_HDMV/PGS
Codec ID/Info                            : Picture based subtitle format used on BDs/HD-DVDs
Duration                                 : 49 min 58 s
Bit rate                                 : 32.8 kb/s
Count of elements                        : 1260
Stream size                              : 11.7 MiB (2%)
Language                                 : Danish
Default                                  : No
Forced                                   : No

Subtitle #6
ID                                       : 9
Format                                   : PGS
Muxing mode                              : zlib
Codec ID                                 : S_HDMV/PGS
Codec ID/Info                            : Picture based subtitle format used on BDs/HD-DVDs
Duration                                 : 49 min 58 s
Bit rate                                 : 34.8 kb/s
Count of elements                        : 1280
Stream size                              : 12.4 MiB (2%)
Language                                 : Finnish
Default                                  : No
Forced                                   : No

Subtitle #7
ID                                       : 10
Format                                   : PGS
Muxing mode                              : zlib
Codec ID                                 : S_HDMV/PGS
Codec ID/Info                            : Picture based subtitle format used on BDs/HD-DVDs
Duration                                 : 49 min 58 s
Bit rate                                 : 34.4 kb/s
Count of elements                        : 1286
Stream size                              : 12.3 MiB (2%)
Language                                 : Norwegian Bokmal
Default                                  : No
Forced                                   : No

Subtitle #8
ID                                       : 11
Format                                   : PGS
Muxing mode                              : zlib
Codec ID                                 : S_HDMV/PGS
Codec ID/Info                            : Picture based subtitle format used on BDs/HD-DVDs
Duration                                 : 49 min 58 s
Bit rate                                 : 31.4 kb/s
Count of elements                        : 1286
Stream size                              : 11.2 MiB (2%)
Language                                 : Swedish
Default                                  : No
Forced                                   : No

Menu
00:00:00.000                             : en:Chapter 1
00:05:59.901                             : en:Chapter 2
00:13:47.702                             : en:Chapter 3
00:22:05.908                             : en:Chapter 4
00:28:31.877                             : en:Chapter 5
00:34:42.080                             : en:Chapter 6
00:42:48.983                             : en:Chapter 7
00:51:02.685                             : en:Chapter 8



Source Information
Release: True Blood BD Boxed Set in Hand


Note From UTR
We have no issue with individuals posting or re-uploading our torrents on a platform we aren't on. However, if this is something you'd like to do, please do so in a 'as-is' format. We ask that you do not create a new torrent, include all descriptions you see above including the UTR logo, tags, notes and screenshots. If you'd like to become a permanent poster on a website we don't post to, feel free to get in contact with a UniTeam member.
If possible please donate: BTC 1QA5fum5AyXvWzdVCkQzUNvw3Ef15fHRaR




Category:TV > HEVC/x265
Lang:English  English
Total Size:6.34 GB
Info Hash:8aa3d567930c1768cf6285302a5378d1ff5340bc
Added By:UTR
Date Added:05-05-2019 16:42:39

Files

File List: 
 File Size
(C) for Audio Commentary.txt613.00 B
Encoded by JoyBell (UTR).txt2.73 kB
Extras/Behind the Scenes.mkv72 MB
Extras/Character Bios.mkv7 MB
Extras/Previously on True Blood.mkv25 MB
Extras/The True Blood Phenomenon.mkv137 MB
Extras/Title Screen.mkv8 MB
folder.jpg42.69 kB
How to play HEVC (THIS FILE).txt3.42 kB
Ninite K-Lite Codecs Unattended Silent Installer and Updater.website561.00 B
True Blood S07E01 Jesus Gonna Be Here (1080p x265 10bit Joy).mkv550 MB
True Blood S07E02 I Found You (1080p x265 10bit Joy) (C).mkv593 MB
True Blood S07E03 Fire in the Hole (1080p x265 10bit Joy).mkv631 MB
True Blood S07E04 Death is Not the End (1080p x265 10bit Joy) (C).mkv624 MB
True Blood S07E05 Lost Cause (1080p x265 10bit Joy).mkv637 MB
True Blood S07E06 Karma (1080p x265 10bit Joy) (C).mkv641 MB
True Blood S07E07 May Be the Last Time (1080p x265 10bit Joy) (C).mkv653 MB
True Blood S07E08 Almost Home (1080p x265 10bit Joy).mkv577 MB
True Blood S07E09 Love Is to Die (1080p x265 10bit Joy).mkv616 MB
True Blood S07E10 Thank You (1080p x265 10bit Joy) (C).mkv716 MB



Loading...
Comments

There are currently no comments. Be the first one to write something !