john wick 幼女 godzilla king of the monsters 2019 men in black the hustle 2019 fast furious presents hobbs shaw 2019 xxx once upon a time in hollywood 2019 long shot 2019 Fear the Walking Dead ddr dora and the lost city of gold 2019 avengers endgame avengers endgame 2019 john wick chapter 3 – parabellum 2019 angel has fallen 2019 annabelle comes home 2019 ready or not 2019 queen of the south the lion king 2019 scary stories to tell in the dark 2019 midsommar 2019 47 meters down uncaged 2019 Killjoys  toy story 4 2019 brightburn 2019 arrow español dark phoenix 2019 0 Dark Phoenix ETTV 2.0 (2018) the secret life of pets 2 2019 ma 2019 aladdin Mindhunter hindi suits spider man far from home 2019 aladdin 2019 etrg John wick 3 men in black international pennyworth preacher shazam 2019 queen of the south s04e12 Article 15 the kitchen 2019 snowfall s03e07 peaky blinders hellboy 2019 sextuplets 2019 etmovies 13 reasons why good boys 2019 motogp angel has fallen yts crawl 2019 the angry birds movie 2 2019 yellowstone s02e09 kabir singh evo the boys power s06e01 anna 2019 ethd men in black international 2019 power night hunter 2019 
Warning! Use a VPN When Downloading Torrents!
Your IP Address is 3.81.28.94. Location is United States
Your Internet Provider is tracking your torrent activity! Hide your IP ADDRESS with a VPN!
We strongly recommend using ExpressVPN to anonymize your torrenting. 30 Day Money Back Guarantee!
Try it Now!
ETTV Recommended TV Shows
Pennyworth.S01E06.Cilla.Black.720p.AMZN.WEB-DL.DDP5.1.H.264-NTG[ettv] torrent
Peaky.Blinders.S05E01.HDTV.x264-BRISK[ettv] torrent
Poldark.2015.S05E07.HDTV.x264-LiNKLE[ettv] torrent
Instinct.US.S02E11.HDTV.x264-LucidTV[ettv] torrent

ETTV Recommended SD
Status Pending.2019.HDRip.XviD.AC3-EVO[EtMovies] torrent
Sweet Inspirations.2019.HDRip.XviD.AC3-EVO[EtMovies] torrent
Aladdin.2019.BRRip.XViD.AC3-ETRG torrent
Woodstock.Or.Bust.2019.HDRip.XviD.AC3-EVO[EtMovies] torrent

ETTV Recommended HD
John.Wick.Chapter.3.Parabellum.2019.1080p.AMZN.WEB-DL.DDP5.1.H.264-NTG[EtHD] torrent
Men in Black International 2019.MULTi.BluRay.1080p.ATMOS.7.1.HEVC-DDR[EtHD] torrent
Fanatic.2019.1080p.NF.WEB-DL.H264-ETRG[EtHD] torrent
Aladdin 2019.MULTi.BluRay.1080p.DTS-HDMA.7.1.HEVC-DDR[EtHD] torrent

ETTV Recommended UHD
The.Hustle.2019.2160p.WEBRip.SDR.DTS-HD.MA.7.1HEVC-DDR[EtHD] torrent
Men in Black International 2019.MULTi.UHD.BluRay.2160p.Atmos.7.1.HEVC-DDR torrent
The Fog.1980.4K.HDR.2160p.BDRip Ita Eng x265-NAHOM torrent
Apocalypse Now 1979.Final.Cut.UHD.Blu-ray.2160p.HDR.ATMOS.7.1.HEVC-DDR torrent

ETTV Recommended Cam
Good Boys 2019 HDCAM x264 AC3-ETRG torrent
Crawl 2019 NEW HDCAM x264 AC3-ETRG torrent
Angel Has Fallen 2019 HDCAM x264 AC3-ETRG torrent
The Lion King 2019 NEW HDCAM x264 AC3-ETRG torrent

ETTV Recommended Foreign
Xenophobia (2019) 720P WEB-DL [Hindi-Dub] x264 - KatmovieHD torrent
I Soliti Idioti 1-2 (2011-2012), [H264 - Ita Ac3 5.1 - Sub Ita Eng][TNTVillage] by SnakeSPL79 torrent
G Affairs 2018 CHN.BluRay 1080p TrueHD 5.1.HEVC-DDR[EtHD] torrent
Student of the Year 2 2019.1080p.AMZN.WEB-Rip.DDP5.1.HEVC-DDR[EtHD] torrent


Download Torrent "True Blood (2008) Season 07 S07 (1080p BluRay x265 HEVC 10bit AAC 5.1 Q22 J..."

IMDB Details
Description:

Telepathic waitress Sookie Stackhouse encounters a strange new supernatural world when she meets the mysterious Bill, a southern Louisiana gentleman and vampire.

Genre:

Drama, Fantasy, Mystery, Romance, Thriller

Download Torrent (Magnet)
Download Torrent (File)
Seeds: 27
Leechers: 378
Completed: 64 
Last Checked: 05-05-2019 16:43:59


Loading...
Details
Title:True Blood (2008) Season 07 S07 (1080p BluRay x265 HEVC 10bit AAC 5.1 Q22 J...
Description:

Media Information
General
Format                                   : Matroska
Format version                           : Version 4 / Version 2
File size                                : 1.73 GiB
Duration                                 : 52 min 10 s
Overall bit rate                         : 4 759 kb/s
Movie name                               : True.Blood.S07E02.I.Found.You.1080p.BluRay.REMUX.AVC.DTS-HD.MA.5.1-EPSiLON  (1080p x265 10bit Joy)
Encoded date                             : UTC 2019-04-21 01:21:06
Writing application                      : mkvmerge v33.1.0 ('Primrose') 64-bit
Writing library                          : libebml v1.3.7 + libmatroska v1.5.0

Video
ID                                       : 1
Format                                   : HEVC
Format/Info                              : High Efficiency Video Coding
Format profile                           : Main [email protected]@Main
Codec ID                                 : V_MPEGH/ISO/HEVC
Duration                                 : 52 min 10 s
Bit rate                                 : 4 375 kb/s
Width                                    : 1 920 pixels
Height                                   : 1 080 pixels
Display aspect ratio                     : 16:9
Frame rate mode                          : Constant
Frame rate                               : 23.976 (24000/1001) FPS
Color space                              : YUV
Chroma subsampling                       : 4:2:0
Bit depth                                : 10 bits
Bits/(Pixel*Frame)                       : 0.088
Stream size                              : 1.59 GiB (92%)
Writing library                          : x265 3.0_Au+14-c7e5878bdd31:[Windows][MSVC 1916][64 bit] 10bit
Encoding settings                        : cpuid=1111039 / frame-threads=3 / numa-pools=12 / wpp / no-pmode / no-pme / no-psnr / ssim / log-level=2 / input-csp=1 / input-res=1920x1080 / interlace=0 / total-frames=75053 / level-idc=0 / high-tier=1 / uhd-bd=0 / ref=4 / no-allow-non-conformance / no-repeat-headers / annexb / no-aud / no-hrd / info / hash=0 / no-temporal-layers / open-gop / min-keyint=23 / keyint=250 / gop-lookahead=0 / bframes=8 / b-adapt=2 / b-pyramid / bframe-bias=20 / rc-lookahead=80 / lookahead-slices=4 / scenecut=40 / radl=0 / no-splice / no-intra-refresh / ctu=64 / min-cu-size=8 / rect / no-amp / max-tu-size=32 / tu-inter-depth=1 / tu-intra-depth=1 / limit-tu=0 / rdoq-level=2 / dynamic-rd=0.00 / ssim-rd / signhide / no-tskip / nr-intra=0 / nr-inter=0 / no-constrained-intra / strong-intra-smoothing / max-merge=3 / limit-refs=3 / limit-modes / me=3 / subme=3 / merange=57 / temporal-mvp / weightp / no-weightb / no-analyze-src-pics / deblock=2:2 / sao / sao-non-deblock / rd=4 / early-skip / rskip / no-fast-intra / no-tskip-fast / no-cu-lossless / no-b-intra / no-splitrd-skip / rdpenalty=0 / psy-rd=1.00 / psy-rdoq=0.70 / no-rd-refine / no-lossless / cbqpoffs=0 / crqpoffs=0 / rc=crf / crf=22.0 / qcomp=0.60 / qpstep=4 / stats-write=0 / stats-read=0 / ipratio=1.40 / pbratio=1.30 / aq-mode=3 / aq-strength=0.80 / cutree / zone-count=0 / no-strict-cbr / qg-size=32 / no-rc-grain / qpmax=69 / qpmin=0 / no-const-vbv / sar=0 / overscan=0 / videoformat=5 / range=0 / colorprim=2 / transfer=2 / colormatrix=2 / chromaloc=0 / display-window=0 / max-cll=0,0 / min-luma=0 / max-luma=1023 / log2-max-poc-lsb=8 / vui-timing-info / vui-hrd-info / slices=1 / no-opt-qp-pps / no-opt-ref-list-length-pps / no-multi-pass-opt-rps / scenecut-bias=0.05 / no-opt-cu-delta-qp / no-aq-motion / no-hdr / no-hdr-opt / no-dhdr10-opt / no-idr-recovery-sei / analysis-reuse-level=5 / scale-factor=0 / refine-intra=0 / refine-inter=0 / refine-mv=0 / refine-ctu-distortion=0 / no-limit-sao / ctu-info=0 / no-lowpass-dct / refine-analysis-type=0 / copy-pic=1 / max-ausize-factor=1.0 / no-dynamic-refine / no-single-sei / no-hevc-aq / no-svt / qp-adaptation-range=1.00
Default                                  : Yes
Forced                                   : No

Audio #1
ID                                       : 2
Format                                   : AAC
Format/Info                              : Advanced Audio Codec
Format profile                           : HE-AAC / LC
Codec ID                                 : A_AAC
Duration                                 : 52 min 10 s
Bit rate                                 : 199 kb/s
Channel(s)                               : 6 channels
Channel positions                        : Front: L C R, Side: L R, LFE
Sampling rate                            : 48.0 kHz / 24.0 kHz
Frame rate                               : 23.438 FPS (1024 spf)
Compression mode                         : Lossy
Delay relative to video                  : 31 ms
Stream size                              : 74.2 MiB (4%)
Language                                 : English
Default                                  : No
Forced                                   : No

Audio #2
ID                                       : 3
Format                                   : AAC
Format/Info                              : Advanced Audio Codec
Format profile                           : HE-AAC / LC
Codec ID                                 : A_AAC
Duration                                 : 52 min 10 s
Bit rate                                 : 84.2 kb/s
Channel(s)                               : 2 channels
Channel positions                        : Front: L R
Sampling rate                            : 48.0 kHz / 24.0 kHz
Frame rate                               : 23.438 FPS (1024 spf)
Compression mode                         : Lossy
Delay relative to video                  : 31 ms
Stream size                              : 31.4 MiB (2%)
Language                                 : Spanish
Default                                  : No
Forced                                   : No

Audio #3
ID                                       : 4
Format                                   : AAC
Format/Info                              : Advanced Audio Codec
Format profile                           : HE-AAC / LC
Codec ID                                 : A_AAC
Duration                                 : 52 min 10 s
Bit rate                                 : 48.0 kb/s
Channel(s)                               : 2 channels
Channel positions                        : Front: L R
Sampling rate                            : 48.0 kHz / 24.0 kHz
Frame rate                               : 23.438 FPS (1024 spf)
Compression mode                         : Lossy
Delay relative to video                  : 31 ms
Stream size                              : 18.0 MiB (1%)
Title                                    : Commentary
Language                                 : English
Default                                  : No
Forced                                   : No

Subtitle #1
ID                                       : 5
Format                                   : VobSub
Muxing mode                              : zlib
Codec ID                                 : S_VOBSUB
Codec ID/Info                            : Picture based subtitle format used on DVDs
Duration                                 : 50 min 44 s
Bit rate                                 : 12.0 kb/s
Count of elements                        : 711
Stream size                              : 4.37 MiB (0%)
Language                                 : English
Default                                  : No
Forced                                   : No

Subtitle #2
ID                                       : 6
Format                                   : VobSub
Muxing mode                              : zlib
Codec ID                                 : S_VOBSUB
Codec ID/Info                            : Picture based subtitle format used on DVDs
Duration                                 : 2 s 594 ms
Bit rate                                 : 24.4 kb/s
Count of elements                        : 1
Stream size                              : 7.73 KiB (0%)
Language                                 : English
Default                                  : No
Forced                                   : Yes

Subtitle #3
ID                                       : 7
Format                                   : VobSub
Muxing mode                              : zlib
Codec ID                                 : S_VOBSUB
Codec ID/Info                            : Picture based subtitle format used on DVDs
Duration                                 : 2 s 617 ms
Bit rate                                 : 24.2 kb/s
Count of elements                        : 1
Stream size                              : 7.73 KiB (0%)
Language                                 : English
Default                                  : No
Forced                                   : No

Subtitle #4
ID                                       : 8
Format                                   : VobSub
Muxing mode                              : zlib
Codec ID                                 : S_VOBSUB
Codec ID/Info                            : Picture based subtitle format used on DVDs
Duration                                 : 49 min 58 s
Bit rate                                 : 10.7 kb/s
Count of elements                        : 643
Stream size                              : 3.82 MiB (0%)
Language                                 : Spanish
Default                                  : No
Forced                                   : No

Subtitle #5
ID                                       : 9
Format                                   : VobSub
Muxing mode                              : zlib
Codec ID                                 : S_VOBSUB
Codec ID/Info                            : Picture based subtitle format used on DVDs
Duration                                 : 49 min 58 s
Bit rate                                 : 11.6 kb/s
Count of elements                        : 642
Stream size                              : 4.14 MiB (0%)
Language                                 : Portuguese
Default                                  : No
Forced                                   : No

Subtitle #6
ID                                       : 10
Format                                   : VobSub
Muxing mode                              : zlib
Codec ID                                 : S_VOBSUB
Codec ID/Info                            : Picture based subtitle format used on DVDs
Duration                                 : 49 min 58 s
Bit rate                                 : 11.9 kb/s
Count of elements                        : 639
Stream size                              : 4.24 MiB (0%)
Language                                 : Dutch
Default                                  : No
Forced                                   : No

Subtitle #7
ID                                       : 11
Format                                   : VobSub
Muxing mode                              : zlib
Codec ID                                 : S_VOBSUB
Codec ID/Info                            : Picture based subtitle format used on DVDs
Duration                                 : 49 min 58 s
Bit rate                                 : 9 839 b/s
Count of elements                        : 630
Stream size                              : 3.52 MiB (0%)
Language                                 : Danish
Default                                  : No
Forced                                   : No

Subtitle #8
ID                                       : 12
Format                                   : VobSub
Muxing mode                              : zlib
Codec ID                                 : S_VOBSUB
Codec ID/Info                            : Picture based subtitle format used on DVDs
Duration                                 : 49 min 58 s
Bit rate                                 : 10.4 kb/s
Count of elements                        : 640
Stream size                              : 3.71 MiB (0%)
Language                                 : Finnish
Default                                  : No
Forced                                   : No

Subtitle #9
ID                                       : 13
Format                                   : VobSub
Muxing mode                              : zlib
Codec ID                                 : S_VOBSUB
Codec ID/Info                            : Picture based subtitle format used on DVDs
Duration                                 : 49 min 58 s
Bit rate                                 : 10.3 kb/s
Count of elements                        : 643
Stream size                              : 3.69 MiB (0%)
Language                                 : Norwegian Bokmal
Default                                  : No
Forced                                   : No

Subtitle #10
ID                                       : 14
Format                                   : VobSub
Muxing mode                              : zlib
Codec ID                                 : S_VOBSUB
Codec ID/Info                            : Picture based subtitle format used on DVDs
Duration                                 : 49 min 58 s
Bit rate                                 : 9 417 b/s
Count of elements                        : 643
Stream size                              : 3.37 MiB (0%)
Language                                 : Swedish
Default                                  : No
Forced                                   : No

Menu
00:00:00.000                             : en:Chapter 01
00:05:59.901                             : en:Chapter 02
00:13:47.701                             : en:Chapter 03
00:22:05.907                             : en:Chapter 04
00:28:31.876                             : en:Chapter 05
00:34:42.080                             : en:Chapter 06
00:42:48.983                             : en:Chapter 07
00:51:02.934                             : en:Chapter 08



Source Information
Release: True Blood BD Boxed Set in Hand


Note From UTR
We have no issue with individuals posting or re-uploading our torrents on a platform we aren't on. However, if this is something you'd like to do, please do so in a 'as-is' format. We ask that you do not create a new torrent, include all descriptions you see above including the UTR logo, tags, notes and screenshots. If you'd like to become a permanent poster on a website we don't post to, feel free to get in contact with a UniTeam member.
If possible please donate: BTC 1QA5fum5AyXvWzdVCkQzUNvw3Ef15fHRaR



Category:TV > HEVC/x265
Lang:English  English
Total Size:17.07 GB
Info Hash:c387d25804c7998b7a220bd93896ae870fffe41a
Added By:UTR
Date Added:05-05-2019 16:43:55

Files

File List: 
 File Size
(C) for Audio Commentary.txt613.00 B
Encoded by JoyBell (UTR).txt2.73 kB
Extras/Behind the Scenes.mkv72 MB
Extras/Character Bios.mkv7 MB
Extras/Previously on True Blood.mkv25 MB
Extras/The True Blood Phenomenon.mkv137 MB
Extras/Title Screen.mkv8 MB
folder.jpg42.69 kB
How to play HEVC (THIS FILE).txt3.42 kB
Ninite K-Lite Codecs Unattended Silent Installer and Updater.website561.00 B
True Blood S07E01 Jesus Gonna Be Here (1080p x265 q22 Joy).mkv1.18 GB
True Blood S07E02 I Found You (1080p x265 q22 Joy) (C).mkv1.73 GB
True Blood S07E03 Fire in the Hole (1080p x265 q22 Joy).mkv1.54 GB
True Blood S07E04 Death is Not the End (1080p x265 q22 Joy) (C).mkv1.87 GB
True Blood S07E05 Lost Cause (1080p x265 q22 Joy).mkv1.60 GB
True Blood S07E06 Karma (1080p x265 q22 Joy) (C).mkv1.85 GB
True Blood S07E07 May Be the Last Time (1080p x265 q22 Joy) (C).mkv2.02 GB
True Blood S07E08 Almost Home (1080p x265 q22 Joy).mkv1.59 GB
True Blood S07E09 Love Is to Die (1080p x265 q22 Joy).mkv1.51 GB
True Blood S07E10 Thank You (1080p x265 q22 Joy) (C).mkv1.94 GB



Loading...
Comments

There are currently no comments. Be the first one to write something !