aladdin 2019 the upside 2019 Elementary The Twilight Zone doom patrol s01e15 evo Seal Team us 2019 2.0 (2018) john wick chapter 2 2017 shazam 2019 chernobyl s01e03 ettv the intruder 2019 yts captain marvel THE 100 fighting with my family 2019 uglydolls 2019 etrg elementary s07e01 the 100 s06e04 hellboy 2019 Hindi ddr us ethd game of thrones s08e06 the hustle 2019 game of thrones game of thrones s08e04 riviera tushyraw 1080p.mp4-ktr Chernobyl etmovies glass 2019 little 2019 chicago pd s06e22 alita battle angel 2019 dumbo 2019 aladdin DDR brightburn 2019 men in black international 2019 avengers endgame 2019 cold pursuit 2019 once upon a time in hollywood 2019 iZombie pokemon detective pikachu 2019 izombie s05e04 Supergirl doom patrol rocketman 2019 John Wick long shot 2019 pet sematary 2019 aquaman 2018 tushy 18.12 1080p.mp4-ktr avengers endgame game of thrones s08e05 ncis what men want 2019 the curse of la llorona 2019 chernobyl s01e01 captain marvel 2019 Killing Eve john wick chapter 3 – parabellum 2019 chernobyl s01e02 a madea family funeral 2019 john wick 2014 john wick 3 SEAL Team S02E22 chicago fire s07e22 
Warning! Use a VPN When Downloading Torrents!
Your IP Address is 54.234.227.202. Location is United States
Your Internet Provider is tracking your torrent activity! Hide your IP ADDRESS with a VPN!
We strongly recommend using ExpressVPN to anonymize your torrenting. 30 Day Money Back Guarantee!
Try it Now!
ETTV Recommended TV Shows
Dynasty.2017.S02E22.WEB.h264-TBS[ettv] torrent
Blindspot.S04E20.HDTV.x264-SVA[ettv] torrent
Marvels.Agents.of.S.H.I.E.L.D.S06E03.REPACK.HDTV.x264-KILLERS[ettv] torrent
Warrior.S01E08.WEB.h264-TBS[ettv] torrent
NJPW 2019 05 24 Best Of The Super Jr 26 Day 9 ENGLISH WEB h264-WD [TJET] torrent
iMPACT Wrestling 24th May 2019 WEBRip h264-TJ [TJET] torrent

ETTV Recommended SD
The Queens Corgi.2019.BDRip.XviD.AC3-EVO torrent
Assimilate.2019.HDRip.XViD-ETRG torrent
The Guard Of Auschwitz.2019.DVDRip.XviD.AC3-EVO[EtMovies] torrent
The.Legend.Of.5.Mile.Cave.2019.HDRip.XviD.AC3-EVO[EtMovies] torrent

ETTV Recommended HD
Avatar.2009.BDRip.1080p.x264.DD.5.1.Gerald torrent
Baywatch.Theatrical.2017.BDRip.1080p.x264.DD.5.1.Gerald torrent
Thud.Pilots.2018.1080p.WEB-DL.DD+2.0.H.264-AJP69[EtHD] torrent
Mission.Impossible.Fallout.2018.1080p.NF.WEB-DL.H264-ETRG[EtHD] torrent

ETTV Recommended UHD
Crank 2006.UHD.BluRay.2160p.HDR.HEVC.Atmos.7.1-DDR torrent
Aquaman 2018 1080p BDrip  x265 7.1 TrueHD Atmos D0ct0rLew[SEV] torrent
Field of Dreams 1989.Multi.UHD.2160p.Blu-ray.HDR.HEVC.DTS-HDMA.5.1-DDR torrent
Godzilla 1998.MULTi.UHD.2160p.HDR.HEVC.Atmos.7.1-DDR torrent

ETTV Recommended Cam
The Hustle 2019 HDCAM x264 AC3 ETRG torrent
Pokemon  Detective Pikachu 2019 HDCAM x264 AC3-ETRG torrent
John Wick 3 2019 HDCAM x264 -ETRG torrent
Aladdin 2019 NEW HDCAM x264 AC3 ETRG torrent

ETTV Recommended Foreign
The.Accidental.Prime.Minister.(2019)1080p.Web-DL.x264.AAC.2.0.ESub-DusIcTv torrent
Junglee.2019.1080p.Hotstar.WEB.DL.H264.AAC.2.0.ESUBS.Telly torrent
Jim Button And Luke The Engine Driver (2018) x264 1080p BluRay {Dual Audio} [Hindi ORG DD 2.0 + ENG 2.0] Exclusive By DREDD torrent
F2-Fun and Frustration.2019.720p.WEBRip.x264.DDP 5.1.ESubs.DDR torrent


Download Torrent "True Blood (2008) Season 05 S05 (1080p BluRay x265 HEVC 10bit AAC 5.1 Joy) ..."

IMDB Details
Description:

Telepathic waitress Sookie Stackhouse encounters a strange new supernatural world when she meets the mysterious Bill, a southern Louisiana gentleman and vampire.

Genre:

Drama, Fantasy, Mystery, Romance, Thriller

Download Torrent (Magnet)
Download Torrent (File)
Seeds: 3
Leechers: 36
Completed:
Last Checked: 05-05-2019 16:45:31


Loading...
Details
Title:True Blood (2008) Season 05 S05 (1080p BluRay x265 HEVC 10bit AAC 5.1 Joy) ...
Description:

Media Information
General
Format                                   : Matroska
Format version                           : Version 4 / Version 2
File size                                : 591 MiB
Duration                                 : 53 min 45 s
Overall bit rate                         : 1 538 kb/s
Movie name                               : True Blood S05E12 Save Yourself  (1080p x265 10bit Joy)
Encoded date                             : UTC 2019-04-27 03:04:18
Writing application                      : mkvmerge v33.1.0 ('Primrose') 64-bit
Writing library                          : libebml v1.3.7 + libmatroska v1.5.0
Writing frontend                         : StaxRip v1.8.2.0, a JoyBell Encode

Video
ID                                       : 1
Format                                   : HEVC
Format/Info                              : High Efficiency Video Coding
Format profile                           : Main [email protected]@Main
Codec ID                                 : V_MPEGH/ISO/HEVC
Duration                                 : 53 min 45 s
Bit rate                                 : 1 202 kb/s
Width                                    : 1 920 pixels
Height                                   : 1 080 pixels
Display aspect ratio                     : 16:9
Frame rate mode                          : Constant
Frame rate                               : 23.976 (24000/1001) FPS
Color space                              : YUV
Chroma subsampling                       : 4:2:0
Bit depth                                : 10 bits
Bits/(Pixel*Frame)                       : 0.024
Stream size                              : 462 MiB (78%)
Writing library                          : x265 3.0_Au+14-c7e5878bdd31:[Windows][MSVC 1916][64 bit] 10bit
Encoding settings                        : cpuid=1111039 / frame-threads=3 / numa-pools=8 / wpp / no-pmode / no-pme / no-psnr / ssim / log-level=2 / input-csp=1 / input-res=1920x1080 / interlace=0 / total-frames=77339 / level-idc=0 / high-tier=1 / uhd-bd=0 / ref=4 / no-allow-non-conformance / no-repeat-headers / annexb / no-aud / no-hrd / info / hash=0 / no-temporal-layers / open-gop / min-keyint=23 / keyint=250 / gop-lookahead=0 / bframes=8 / b-adapt=2 / b-pyramid / bframe-bias=40 / rc-lookahead=80 / lookahead-slices=4 / scenecut=40 / radl=0 / no-splice / no-intra-refresh / ctu=64 / min-cu-size=8 / no-rect / no-amp / max-tu-size=32 / tu-inter-depth=1 / tu-intra-depth=1 / limit-tu=0 / rdoq-level=2 / dynamic-rd=0.00 / ssim-rd / signhide / no-tskip / nr-intra=0 / nr-inter=0 / no-constrained-intra / strong-intra-smoothing / max-merge=3 / limit-refs=3 / limit-modes / me=3 / subme=3 / merange=57 / temporal-mvp / weightp / no-weightb / no-analyze-src-pics / deblock=0:0 / sao / no-sao-non-deblock / rd=4 / early-skip / rskip / no-fast-intra / no-tskip-fast / no-cu-lossless / no-b-intra / splitrd-skip / rdpenalty=0 / psy-rd=0.00 / psy-rdoq=1.50 / no-rd-refine / no-lossless / cbqpoffs=0 / crqpoffs=0 / rc=abr / bitrate=1200 / qcomp=0.60 / qpstep=4 / stats-write=0 / stats-read=2 / cplxblur=20.0 / qblur=0.5 / ipratio=1.40 / pbratio=1.30 / aq-mode=3 / aq-strength=0.80 / cutree / zone-count=0 / no-strict-cbr / qg-size=32 / no-rc-grain / qpmax=69 / qpmin=0 / no-const-vbv / sar=0 / overscan=0 / videoformat=5 / range=0 / colorprim=2 / transfer=2 / colormatrix=2 / chromaloc=0 / display-window=0 / max-cll=0,0 / min-luma=0 / max-luma=1023 / log2-max-poc-lsb=8 / vui-timing-info / vui-hrd-info / slices=1 / no-opt-qp-pps / no-opt-ref-list-length-pps / multi-pass-opt-rps / scenecut-bias=0.05 / no-opt-cu-delta-qp / no-aq-motion / no-hdr / no-hdr-opt / no-dhdr10-opt / no-idr-recovery-sei / analysis-reuse-level=10 / scale-factor=0 / refine-intra=0 / refine-inter=0 / refine-mv=0 / refine-ctu-distortion=0 / limit-sao / ctu-info=0 / no-lowpass-dct / refine-analysis-type=0 / copy-pic=1 / max-ausize-factor=1.0 / no-dynamic-refine / no-single-sei / no-hevc-aq / no-svt / qp-adaptation-range=1.00
Default                                  : Yes
Forced                                   : No

Audio #1
ID                                       : 2
Format                                   : AAC
Format/Info                              : Advanced Audio Codec
Format profile                           : HE-AAC / LC
Codec ID                                 : A_AAC
Duration                                 : 53 min 45 s
Bit rate                                 : 228 kb/s
Channel(s)                               : 6 channels
Channel positions                        : Front: L C R, Side: L R, LFE
Sampling rate                            : 48.0 kHz / 24.0 kHz
Frame rate                               : 23.438 FPS (1024 spf)
Compression mode                         : Lossy
Delay relative to video                  : 31 ms
Stream size                              : 87.8 MiB (15%)
Language                                 : English
Default                                  : No
Forced                                   : No

Audio #2
ID                                       : 3
Format                                   : AAC
Format/Info                              : Advanced Audio Codec
Format profile                           : HE-AACv2 / HE-AAC / LC
Codec ID                                 : A_AAC
Duration                                 : 53 min 45 s
Bit rate                                 : 52.1 kb/s
Channel(s)                               : 2 channels / 1 channel / 1 channel
Channel positions                        : Front: L R / , LFE / , LFE
Sampling rate                            : 48.0 kHz / 48.0 kHz / 24.0 kHz
Frame rate                               : 23.438 FPS (1024 spf)
Compression mode                         : Lossy
Delay relative to video                  : 31 ms
Stream size                              : 20.0 MiB (3%)
Title                                    : Commentary by actor Anna Paquin, creator/executive producer Alan Ball and director Michael Lehmann
Language                                 : English
Default                                  : No
Forced                                   : No

Subtitle #1
ID                                       : 4
Format                                   : VobSub
Muxing mode                              : zlib
Codec ID                                 : S_VOBSUB
Codec ID/Info                            : Picture based subtitle format used on DVDs
Duration                                 : 52 min 30 s
Bit rate                                 : 11.4 kb/s
Count of elements                        : 717
Stream size                              : 4.28 MiB (1%)
Language                                 : English
Default                                  : No
Forced                                   : No

Subtitle #2
ID                                       : 5
Format                                   : VobSub
Muxing mode                              : zlib
Codec ID                                 : S_VOBSUB
Codec ID/Info                            : Picture based subtitle format used on DVDs
Duration                                 : 52 min 30 s
Bit rate                                 : 8 376 b/s
Count of elements                        : 661
Stream size                              : 3.15 MiB (1%)
Language                                 : French
Default                                  : No
Forced                                   : No

Subtitle #3
ID                                       : 6
Format                                   : VobSub
Muxing mode                              : zlib
Codec ID                                 : S_VOBSUB
Codec ID/Info                            : Picture based subtitle format used on DVDs
Duration                                 : 52 min 30 s
Bit rate                                 : 11.2 kb/s
Count of elements                        : 671
Stream size                              : 4.20 MiB (1%)
Language                                 : Spanish
Default                                  : No
Forced                                   : No

Subtitle #4
ID                                       : 7
Format                                   : VobSub
Muxing mode                              : zlib
Codec ID                                 : S_VOBSUB
Codec ID/Info                            : Picture based subtitle format used on DVDs
Duration                                 : 52 min 30 s
Bit rate                                 : 10.0 kb/s
Count of elements                        : 664
Stream size                              : 3.77 MiB (1%)
Language                                 : Portuguese
Default                                  : No
Forced                                   : No

Subtitle #5
ID                                       : 8
Format                                   : VobSub
Muxing mode                              : zlib
Codec ID                                 : S_VOBSUB
Codec ID/Info                            : Picture based subtitle format used on DVDs
Duration                                 : 52 min 30 s
Bit rate                                 : 9 876 b/s
Count of elements                        : 667
Stream size                              : 3.71 MiB (1%)
Language                                 : Dutch
Default                                  : No
Forced                                   : No

Subtitle #6
ID                                       : 9
Format                                   : VobSub
Muxing mode                              : zlib
Codec ID                                 : S_VOBSUB
Codec ID/Info                            : Picture based subtitle format used on DVDs
Duration                                 : 52 min 30 s
Bit rate                                 : 9 265 b/s
Count of elements                        : 670
Stream size                              : 3.48 MiB (1%)
Language                                 : Danish
Default                                  : No
Forced                                   : No

Subtitle #7
ID                                       : 10
Format                                   : VobSub
Muxing mode                              : zlib
Codec ID                                 : S_VOBSUB
Codec ID/Info                            : Picture based subtitle format used on DVDs
Duration                                 : 52 min 30 s
Bit rate                                 : 10.3 kb/s
Count of elements                        : 586
Stream size                              : 3.85 MiB (1%)
Language                                 : Finnish
Default                                  : No
Forced                                   : No

Subtitle #8
ID                                       : 11
Format                                   : VobSub
Muxing mode                              : zlib
Codec ID                                 : S_VOBSUB
Codec ID/Info                            : Picture based subtitle format used on DVDs
Duration                                 : 52 min 30 s
Bit rate                                 : 10.8 kb/s
Count of elements                        : 670
Stream size                              : 4.05 MiB (1%)
Language                                 : Norwegian Bokmal
Default                                  : No
Forced                                   : No

Subtitle #9
ID                                       : 12
Format                                   : VobSub
Muxing mode                              : zlib
Codec ID                                 : S_VOBSUB
Codec ID/Info                            : Picture based subtitle format used on DVDs
Duration                                 : 52 min 30 s
Bit rate                                 : 10.4 kb/s
Count of elements                        : 668
Stream size                              : 3.92 MiB (1%)
Language                                 : Swedish
Default                                  : No
Forced                                   : No

Menu
00:00:00.000                             : en:Chapter 1
00:02:51.671                             : en:Chapter 2
00:08:28.633                             : en:Chapter 3
00:18:00.079                             : en:Chapter 4
00:27:29.147                             : en:Chapter 5
00:36:14.589                             : en:Chapter 6
00:44:14.527                             : en:Chapter 7
00:52:37.654                             : en:Chapter 8



Source Information
Release: True Blood BD Boxed Set in Hand



Note From UTR
We have no issue with individuals posting or re-uploading our torrents on a platform we aren't on. However, if this is something you'd like to do, please do so in a 'as-is' format. We ask that you do not create a new torrent, include all descriptions you see above including the UTR logo, tags, notes and screenshots. If you'd like to become a permanent poster on a website we don't post to, feel free to get in contact with a UniTeam member.
If possible please donate: BTC 1QA5fum5AyXvWzdVCkQzUNvw3Ef15fHRaR




Category:TV > HEVC/x265
Lang:English  English
Total Size:7.08 GB
Info Hash:2e4f520f7a24403153af780a914291067b03ab83
Added By:UTR
Date Added:05-05-2019 16:45:23

Files

File List: 
 File Size
(C) for audio commentary.txt578.00 B
Encoded by JoyBell (UTR).txt2.73 kB
Featurettes/Inside the Episode/Inside the Episode S05E01 Turn! Turn! Turn!.mkv19 MB
Featurettes/Inside the Episode/Inside the Episode S05E02 Authority Always Wins.mkv17 MB
Featurettes/Inside the Episode/Inside the Episode S05E03 Whatever I Am, You Made Me.mkv21 MB
Featurettes/Inside the Episode/Inside the Episode S05E04 We'll Meet Again.mkv21 MB
Featurettes/Inside the Episode/Inside the Episode S05E05 Let's Boot and Rally.mkv16 MB
Featurettes/Inside the Episode/Inside the Episode S05E06 Hopeless.mkv14 MB
Featurettes/Inside the Episode/Inside the Episode S05E07 In the Beginning.mkv15 MB
Featurettes/Inside the Episode/Inside the Episode S05E08 Somebody That I Used to Know.mkv15 MB
Featurettes/Inside the Episode/Inside the Episode S05E09 Everybody Wants to Rule the World.mkv15 MB
Featurettes/Inside the Episode/Inside the Episode S05E10 Gone, Gone, Gone.mkv21 MB
Featurettes/Last Season On True Blood.mkv19 MB
Featurettes/Lore and Background/I was Wrong.mkv10 MB
Featurettes/Lore and Background/Lilith is my Destiny.mkv10 MB
Featurettes/Lore and Background/Panties in a Twist.mkv10 MB
Featurettes/Lore and Background/Seen Some Crazy Things.mkv10 MB
Featurettes/Lore and Background/The Authority.mkv14 MB
Featurettes/Lore and Background/The Blood of Lilith.mkv15 MB
Featurettes/Lore and Background/The Race for True Blood.mkv19 MB
Featurettes/Lore and Background/The Sanguinistas.mkv13 MB
Featurettes/Lore and Background/The Vampire Bible.mkv13 MB
Featurettes/Title.mkv7 MB
folder.jpg140.98 kB
How to play HEVC (THIS FILE).txt3.42 kB
Ninite K-Lite Codecs Unattended Silent Installer and Updater.website561.00 B
True Blood S05E01 Turn! Turn! Turn! (1080p x265 10bit Joy).mkv554 MB
True Blood S05E02 Authority Always Wins (1080p x265 10bit Joy).mkv583 MB
True Blood S05E03 Whatever I Am, You Made Me (1080p x265 10bit Joy).mkv629 MB
True Blood S05E04 We'll Meet Again (1080p x265 10bit Joy) (C).mkv616 MB
True Blood S05E05 Let's Boot and Rally (1080p x265 10bit Joy).mkv500 MB
True Blood S05E06 Hopeless (1080p x265 10bit Joy).mkv553 MB
True Blood S05E07 In the Beginning (1080p x265 10bit Joy).mkv612 MB
True Blood S05E08 Somebody That I Used to Know (1080p x265 10bit Joy) (C).mkv592 MB
True Blood S05E09 Everybody Wants to Rule the World (1080p x265 10bit Joy) (C).mkv631 MB
True Blood S05E10 Gone, Gone, Gone (1080p x265 10bit Joy).mkv518 MB
True Blood S05E11 Sunset (1080p x265 10bit Joy) (C).mkv552 MB
True Blood S05E12 Save Yourself (1080p x265 10bit Joy) (C).mkv591 MB



Comments

There are currently no comments. Be the first one to write something !