aladdin 2019 the upside 2019 Elementary The Twilight Zone doom patrol s01e15 evo Seal Team us 2019 2.0 (2018) john wick chapter 2 2017 shazam 2019 chernobyl s01e03 ettv the intruder 2019 yts captain marvel THE 100 fighting with my family 2019 uglydolls 2019 etrg elementary s07e01 the 100 s06e04 hellboy 2019 Hindi ddr us ethd game of thrones s08e06 the hustle 2019 game of thrones game of thrones s08e04 riviera tushyraw 1080p.mp4-ktr Chernobyl etmovies glass 2019 little 2019 chicago pd s06e22 alita battle angel 2019 dumbo 2019 aladdin DDR brightburn 2019 men in black international 2019 avengers endgame 2019 cold pursuit 2019 once upon a time in hollywood 2019 iZombie pokemon detective pikachu 2019 izombie s05e04 Supergirl doom patrol rocketman 2019 John Wick long shot 2019 pet sematary 2019 aquaman 2018 tushy 18.12 1080p.mp4-ktr avengers endgame game of thrones s08e05 ncis what men want 2019 the curse of la llorona 2019 chernobyl s01e01 captain marvel 2019 Killing Eve john wick chapter 3 – parabellum 2019 chernobyl s01e02 a madea family funeral 2019 john wick 2014 john wick 3 SEAL Team S02E22 chicago fire s07e22 
Warning! Use a VPN When Downloading Torrents!
Your IP Address is 54.234.227.202. Location is United States
Your Internet Provider is tracking your torrent activity! Hide your IP ADDRESS with a VPN!
We strongly recommend using ExpressVPN to anonymize your torrenting. 30 Day Money Back Guarantee!
Try it Now!
ETTV Recommended TV Shows
Dynasty.2017.S02E22.WEB.h264-TBS[ettv] torrent
Blindspot.S04E20.HDTV.x264-SVA[ettv] torrent
Marvels.Agents.of.S.H.I.E.L.D.S06E03.REPACK.HDTV.x264-KILLERS[ettv] torrent
Warrior.S01E08.WEB.h264-TBS[ettv] torrent
NJPW 2019 05 24 Best Of The Super Jr 26 Day 9 ENGLISH WEB h264-WD [TJET] torrent
iMPACT Wrestling 24th May 2019 WEBRip h264-TJ [TJET] torrent

ETTV Recommended SD
The Queens Corgi.2019.BDRip.XviD.AC3-EVO torrent
Assimilate.2019.HDRip.XViD-ETRG torrent
The Guard Of Auschwitz.2019.DVDRip.XviD.AC3-EVO[EtMovies] torrent
The.Legend.Of.5.Mile.Cave.2019.HDRip.XviD.AC3-EVO[EtMovies] torrent

ETTV Recommended HD
Avatar.2009.BDRip.1080p.x264.DD.5.1.Gerald torrent
Baywatch.Theatrical.2017.BDRip.1080p.x264.DD.5.1.Gerald torrent
Thud.Pilots.2018.1080p.WEB-DL.DD+2.0.H.264-AJP69[EtHD] torrent
Mission.Impossible.Fallout.2018.1080p.NF.WEB-DL.H264-ETRG[EtHD] torrent

ETTV Recommended UHD
Crank 2006.UHD.BluRay.2160p.HDR.HEVC.Atmos.7.1-DDR torrent
Aquaman 2018 1080p BDrip  x265 7.1 TrueHD Atmos D0ct0rLew[SEV] torrent
Field of Dreams 1989.Multi.UHD.2160p.Blu-ray.HDR.HEVC.DTS-HDMA.5.1-DDR torrent
Godzilla 1998.MULTi.UHD.2160p.HDR.HEVC.Atmos.7.1-DDR torrent

ETTV Recommended Cam
The Hustle 2019 HDCAM x264 AC3 ETRG torrent
Pokemon  Detective Pikachu 2019 HDCAM x264 AC3-ETRG torrent
John Wick 3 2019 HDCAM x264 -ETRG torrent
Aladdin 2019 NEW HDCAM x264 AC3 ETRG torrent

ETTV Recommended Foreign
The.Accidental.Prime.Minister.(2019)1080p.Web-DL.x264.AAC.2.0.ESub-DusIcTv torrent
Junglee.2019.1080p.Hotstar.WEB.DL.H264.AAC.2.0.ESUBS.Telly torrent
Jim Button And Luke The Engine Driver (2018) x264 1080p BluRay {Dual Audio} [Hindi ORG DD 2.0 + ENG 2.0] Exclusive By DREDD torrent
F2-Fun and Frustration.2019.720p.WEBRip.x264.DDP 5.1.ESubs.DDR torrent


Download Torrent "Modern Family S10E21 (1080p AMZN WEB-DL x265 HEVC 10bit AC3 5.1 Qman) [UTR]"

IMDB Details
Description:

N/A

Genre:

N/A

Download Torrent (Magnet)
Download Torrent (File)
Seeds: 11
Leechers: 3
Completed: 37 
Last Checked: 06-05-2019 02:17:14


Loading...
Details
Title:Modern Family S10E21 (1080p AMZN WEB-DL x265 HEVC 10bit AC3 5.1 Qman) [UTR]
Description:







Media Information

Media Information
General
Format                                   : Matroska
Format version                           : Version 4 / Version 2
File size                                : 690 MiB
Duration                                 : 21 min 33 s
Overall bit rate                         : 4 473 kb/s
Encoded date                             : UTC 2019-05-04 15:59:49
Writing application                      : mkvmerge v30.1.0 ('Forever And More') 64-bit
Writing library                          : libebml v1.3.6 + libmatroska v1.4.9

Video
ID                                       : 1
Format                                   : HEVC
Format/Info                              : High Efficiency Video Coding
Format profile                           : Main [email protected]@Main
Codec ID                                 : V_MPEGH/ISO/HEVC
Duration                                 : 21 min 33 s
Bit rate                                 : 3 831 kb/s
Width                                    : 1 920 pixels
Height                                   : 1 080 pixels
Display aspect ratio                     : 16:9
Frame rate mode                          : Constant
Frame rate                               : 23.976 (24000/1001) FPS
Color space                              : YUV
Chroma subsampling                       : 4:2:0
Bit depth                                : 10 bits
Bits/(Pixel*Frame)                       : 0.077
Stream size                              : 591 MiB (86%)
Writing library                          : x265 3.0_Au+18-768ab38fd5fd:[Windows][MSVC 1920][64 bit] 10bit
Encoding settings                        : cpuid=1111039 / frame-threads=4 / numa-pools=16 / wpp / no-pmode / no-pme / no-psnr / no-ssim / log-level=2 / input-csp=1 / input-res=1920x1080 / interlace=0 / total-frames=31013 / level-idc=0 / high-tier=1 / uhd-bd=0 / ref=4 / no-allow-non-conformance / no-repeat-headers / annexb / no-aud / no-hrd / info / hash=0 / no-temporal-layers / open-gop / min-keyint=23 / keyint=250 / gop-lookahead=0 / bframes=8 / b-adapt=2 / b-pyramid / bframe-bias=0 / rc-lookahead=50 / lookahead-slices=4 / scenecut=40 / radl=0 / no-splice / no-intra-refresh / ctu=64 / min-cu-size=8 / no-rect / no-amp / max-tu-size=32 / tu-inter-depth=1 / tu-intra-depth=1 / limit-tu=0 / rdoq-level=2 / dynamic-rd=0.00 / no-ssim-rd / signhide / no-tskip / nr-intra=0 / nr-inter=0 / no-constrained-intra / no-strong-intra-smoothing / max-merge=3 / limit-refs=3 / limit-modes / me=3 / subme=3 / merange=57 / temporal-mvp / weightp / no-weightb / no-analyze-src-pics / deblock=1:1 / no-sao / no-sao-non-deblock / rd=4 / no-early-skip / no-rskip / no-fast-intra / no-tskip-fast / no-cu-lossless / no-b-intra / no-splitrd-skip / rdpenalty=0 / psy-rd=1.40 / psy-rdoq=1.00 / no-rd-refine / no-lossless / cbqpoffs=0 / crqpoffs=0 / rc=crf / crf=21.0 / qcomp=0.60 / qpstep=4 / stats-write=0 / stats-read=0 / ipratio=1.40 / pbratio=1.30 / aq-mode=2 / aq-strength=1.00 / cutree / zone-count=0 / no-strict-cbr / qg-size=32 / no-rc-grain / qpmax=69 / qpmin=0 / no-const-vbv / sar=0 / overscan=0 / videoformat=5 / range=0 / colorprim=2 / transfer=2 / colormatrix=2 / chromaloc=0 / display-window=0 / max-cll=0,0 / min-luma=0 / max-luma=1023 / log2-max-poc-lsb=8 / vui-timing-info / vui-hrd-info / slices=1 / no-opt-qp-pps / no-opt-ref-list-length-pps / no-multi-pass-opt-rps / scenecut-bias=0.05 / no-opt-cu-delta-qp / no-aq-motion / no-hdr / no-hdr-opt / no-dhdr10-opt / no-idr-recovery-sei / analysis-reuse-level=5 / scale-factor=0 / refine-intra=0 / refine-inter=0 / refine-mv=0 / refine-ctu-distortion=0 / no-limit-sao / ctu-info=0 / no-lowpass-dct / refine-analysis-type=0 / copy-pic=1 / max-ausize-factor=1.0 / no-dynamic-refine / no-single-sei / no-hevc-aq / no-svt / qp-adaptation-range=1.00
Language                                 : English
Default                                  : Yes
Forced                                   : No

Audio
ID                                       : 2
Format                                   : E-AC-3
Format/Info                              : Enhanced Audio Coding 3
Format settings, Endianness              : Big
Codec ID                                 : A_EAC3
Duration                                 : 21 min 33 s
Bit rate mode                            : Constant
Bit rate                                 : 640 kb/s
Channel(s)                               : 6 channels
Channel positions                        : Front: L C R, Side: L R, LFE
Sampling rate                            : 48.0 kHz
Frame rate                               : 187.500 FPS (256 spf)
Compression mode                         : Lossy
Stream size                              : 98.7 MiB (14%)
Language                                 : English
Default                                  : Yes
Forced                                   : No

Subtitle
ID                                       : 3
Format                                   : UTF-8
Codec ID                                 : S_TEXT/UTF8
Codec ID/Info                            : UTF-8 Plain Text
Duration                                 : 21 min 24 s
Bit rate                                 : 128 b/s
Count of elements                        : 623
Stream size                              : 20.1 KiB (0%)
Language                                 : English
Default                                  : Yes
Forced                                   : No



Source Information
Release: Unknown Source/NO-GROUP


Note From UTR
We have no issue with individuals posting or re-uploading our torrents on a platform we aren't on. However, if this is something you'd like to do, please do so in a 'as-is' format. We ask that you do not create a new torrent, include all descriptions you see above including the UTR logo, tags, notes and screenshots. If you'd like to become a permanent poster on a website we don't post to, feel free to get in contact with a UniTeam member.
If possible please donate: BTC 1QA5fum5AyXvWzdVCkQzUNvw3Ef15fHRaR




Category:TV > HEVC/x265
Lang:English  English
Total Size:690 MB
Info Hash:5353c7476afe08bf1c2b6dcfa26d5854118b57ec
Added By:UTR
Date Added:06-05-2019 02:17:11

Files

File List: 
 File Size
Modern.Family.S10E21.1080p.AMZN.WEB-DL.x265.10bit.EAC3.6.0-Qman[UTR].mkv690 MB



Comments

There are currently no comments. Be the first one to write something !