snowfall s03e02 big brother s21e10 rocketman 2019 toy story 4 2019 the inbetween s01e06 annabelle comes home 2019 suits s09e01 aladdin 2019 shazam 2019 2.0 (2018) big little lies s02e06 the lion king 2019 Suits  wwe Stranger things krypton hellboy 2019 ettv dc week proper pandora s01e01 krypton s02e06 big bang theory español yesterday 2019 captain marvel 2019 endgame anna 2019 xxx dumbo 2019 godzilla king of the monsters 2019 avengers endgame 2019 ddr kabir singh Shazam shaft 2019 dark phoenix 2019 midsommar 2019 John wick stuber 2019 alita battle angel 2019 John wick 3 hindi archer animal kingdom s04e08 spider man far from home 2019 evo childs play 2019 etrg the intruder 2019 big little lies us 2019 the handmaids tale s03e09 ethd alita yellowstone s02e04 The Handmaids Tale hellboy yellowstone long shot 2019 the 100 s06e10 once upon a time in hollywood 2019 The 100 men in black international 2019 brightburn 2019 john wick chapter 3 – parabellum 2019 avengers endgame pearson s01e01 DDR ma 2019 yts etmovies crawl 2019 arrow español 
Warning! Use a VPN When Downloading Torrents!
Your IP Address is 18.206.241.26. Location is United States
Your Internet Provider is tracking your torrent activity! Hide your IP ADDRESS with a VPN!
We strongly recommend using ExpressVPN to anonymize your torrenting. 30 Day Money Back Guarantee!
Try it Now!
ETTV Recommended TV Shows
Krypton.S02E06.HDTV.x264-SVA[ettv] torrent
Suits.S09E01.WEB.x264-TBS[ettv] torrent
Pearson.S01E01.WEB.x264-TBS[ettv] torrent
Pose.S02E05.REPACK.WEB.H264-MEMENTO[ettv] torrent
The.InBetween.S01E06.HDTV.x264-KILLERS[ettv] torrent
Yellowstone.2018.S02E04.WEBRip.x264-KOMPOST[ettv] torrent

ETTV Recommended SD
The.Intruder.2019.HDRip.XViD-ETRG torrent
Secret.Obsession.2019.HDRip.XviD.AC3-EVO torrent
El.Chicano.2019.DVDRip.XviD.AC3-EVO torrent
Union.Bound.2019.HDRip.XviD.AC3-EVO torrent

ETTV Recommended HD
Dark.Deadly.and.Dreadful.2019.1080p.AMZN.WEB-Rip.DDP2.0.HEVC-DDR[EtHD] torrent
Secret.Obsession.2019.MULTI.1080p.WEB.Rip.DDP.5.1.HEVC-DDR[EtHD] torrent
Fast.Color.2018.BluRay.1080p.DTS-HD.MA.5.1.HEVC-DDR[EtHD] torrent
Union.Bound.2019.1080p.AMZN.WEB-DL.DDP2.0.H264-CMRG[EtHD] torrent

ETTV Recommended UHD
Shazam! 2019.Multi.UHD.BluRay.2160p.HDR.HEVC.Atmos.7.1[En+Hindi++]-DDR torrent
Alita Battle Angel 2019.MULTi.UHD.BluRay.2160p.HDR.Atmos.7.1.HEVC[EN+Hindi++]-DDR.mkv torrent
Hellboy 2019.MULTi.UHD.BluRay.2160p.HDR.Atmos.7.1.HEVC-DDR torrent
Breakthrough 2019.MULTi.UHD.BluRay.2160p.HEVC.DTS-HD.MA7.1.[En+Hindi+Fr+Sp+Ur+Tur]-DDR torrent

ETTV Recommended Cam
Crawl 2019 720p HDCAM-1XBET torrent
Stuber 2019 720p HDCAM-1XBET torrent
Spider-Man Far From Home 2019 HD-TC x264 AC3-ETRG torrent
The Lion King 2019 720p HDCAM-1XBET torrent

ETTV Recommended Foreign
Alita:Battle.Angel.(2019).[1080p].[Dual.Audio].[Org.BD].{Hindi+Eng.6Ch}.-~{DOOMSDAY}~-. torrent
Hum Hain Rahi Pyar Ke.1993.1080p.WEB-DL.AVC.AAC.DDR torrent
The.Dark.Knight.(2008).[IMAX.1080p].[Dual.Audio].[Org.DD].{Hindi.2.0+Eng.6Ch}.-~{DOOMSDAY}~-. torrent
The.Beast.2019.HDRip.720p-Mkvking torrent


Download Torrent "Mom S06E21 (1080p AMZN WEB-DL x265 HEVC 10bit AC3 5.1 Qman) [UTR]"

IMDB Details
Description:

N/A

Genre:

N/A

Download Torrent (Magnet)
Download Torrent (File)
Seeds: 8
Leechers: 3
Completed: 32 
Last Checked: 06-05-2019 02:18:45


Loading...
Details
Title:Mom S06E21 (1080p AMZN WEB-DL x265 HEVC 10bit AC3 5.1 Qman) [UTR]
Description:







Media Information

Media Information
General
Format                                   : Matroska
Format version                           : Version 4 / Version 2
File size                                : 563 MiB
Duration                                 : 20 min 46 s
Overall bit rate                         : 3 791 kb/s
Encoded date                             : UTC 2019-05-04 16:06:07
Writing application                      : mkvmerge v30.1.0 ('Forever And More') 64-bit
Writing library                          : libebml v1.3.6 + libmatroska v1.4.9

Video
ID                                       : 1
Format                                   : HEVC
Format/Info                              : High Efficiency Video Coding
Format profile                           : Main [email protected]@Main
Codec ID                                 : V_MPEGH/ISO/HEVC
Duration                                 : 20 min 46 s
Bit rate                                 : 3 149 kb/s
Width                                    : 1 920 pixels
Height                                   : 1 080 pixels
Display aspect ratio                     : 16:9
Frame rate mode                          : Constant
Frame rate                               : 24.000 FPS
Color space                              : YUV
Chroma subsampling                       : 4:2:0
Bit depth                                : 10 bits
Bits/(Pixel*Frame)                       : 0.063
Stream size                              : 468 MiB (83%)
Writing library                          : x265 3.0_Au+22-feec4bdf9866:[Windows][GCC 8.3.0][64 bit] 10bit
Encoding settings                        : cpuid=1111039 / frame-threads=4 / numa-pools=16 / wpp / no-pmode / no-pme / no-psnr / no-ssim / log-level=2 / input-csp=1 / input-res=1920x1080 / interlace=0 / total-frames=29926 / level-idc=0 / high-tier=1 / uhd-bd=0 / ref=4 / no-allow-non-conformance / no-repeat-headers / annexb / no-aud / no-hrd / info / hash=0 / no-temporal-layers / open-gop / min-keyint=24 / keyint=250 / gop-lookahead=0 / bframes=8 / b-adapt=2 / b-pyramid / bframe-bias=0 / rc-lookahead=50 / lookahead-slices=4 / scenecut=40 / radl=0 / no-splice / no-intra-refresh / ctu=64 / min-cu-size=8 / no-rect / no-amp / max-tu-size=32 / tu-inter-depth=1 / tu-intra-depth=1 / limit-tu=0 / rdoq-level=2 / dynamic-rd=0.00 / no-ssim-rd / signhide / no-tskip / nr-intra=0 / nr-inter=0 / no-constrained-intra / no-strong-intra-smoothing / max-merge=3 / limit-refs=3 / limit-modes / me=3 / subme=3 / merange=57 / temporal-mvp / weightp / no-weightb / no-analyze-src-pics / deblock=1:1 / no-sao / no-sao-non-deblock / rd=4 / no-early-skip / no-rskip / no-fast-intra / no-tskip-fast / no-cu-lossless / no-b-intra / no-splitrd-skip / rdpenalty=0 / psy-rd=1.40 / psy-rdoq=1.00 / no-rd-refine / no-lossless / cbqpoffs=0 / crqpoffs=0 / rc=crf / crf=21.0 / qcomp=0.60 / qpstep=4 / stats-write=0 / stats-read=0 / ipratio=1.40 / pbratio=1.30 / aq-mode=2 / aq-strength=1.00 / cutree / zone-count=0 / no-strict-cbr / qg-size=32 / no-rc-grain / qpmax=69 / qpmin=0 / no-const-vbv / sar=0 / overscan=0 / videoformat=5 / range=0 / colorprim=2 / transfer=2 / colormatrix=2 / chromaloc=0 / display-window=0 / max-cll=0,0 / min-luma=0 / max-luma=1023 / log2-max-poc-lsb=8 / vui-timing-info / vui-hrd-info / slices=1 / no-opt-qp-pps / no-opt-ref-list-length-pps / no-multi-pass-opt-rps / scenecut-bias=0.05 / no-opt-cu-delta-qp / no-aq-motion / no-hdr / no-hdr-opt / no-dhdr10-opt / no-idr-recovery-sei / analysis-reuse-level=5 / scale-factor=0 / refine-intra=0 / refine-inter=0 / refine-mv=0 / refine-ctu-distortion=0 / no-limit-sao / ctu-info=0 / no-lowpass-dct / refine-analysis-type=0 / copy-pic=1 / max-ausize-factor=1.0 / no-dynamic-refine / no-single-sei / no-hevc-aq / no-svt / qp-adaptation-range=1.00
Language                                 : English
Default                                  : Yes
Forced                                   : No

Audio
ID                                       : 2
Format                                   : E-AC-3
Format/Info                              : Enhanced Audio Coding 3
Format settings, Endianness              : Big
Codec ID                                 : A_EAC3
Duration                                 : 20 min 46 s
Bit rate mode                            : Constant
Bit rate                                 : 640 kb/s
Channel(s)                               : 6 channels
Channel positions                        : Front: L C R, Side: L R, LFE
Sampling rate                            : 48.0 kHz
Frame rate                               : 187.500 FPS (256 spf)
Compression mode                         : Lossy
Stream size                              : 95.1 MiB (17%)
Language                                 : English
Default                                  : Yes
Forced                                   : No

Subtitle
ID                                       : 3
Format                                   : UTF-8
Codec ID                                 : S_TEXT/UTF8
Codec ID/Info                            : UTF-8 Plain Text
Duration                                 : 20 min 23 s
Bit rate                                 : 104 b/s
Count of elements                        : 458
Stream size                              : 15.6 KiB (0%)
Language                                 : English
Default                                  : Yes
Forced                                   : No



Source Information
Release: Unknown Source/NO-GROUP


Note From UTR
We have no issue with individuals posting or re-uploading our torrents on a platform we aren't on. However, if this is something you'd like to do, please do so in a 'as-is' format. We ask that you do not create a new torrent, include all descriptions you see above including the UTR logo, tags, notes and screenshots. If you'd like to become a permanent poster on a website we don't post to, feel free to get in contact with a UniTeam member.
If possible please donate: BTC 1QA5fum5AyXvWzdVCkQzUNvw3Ef15fHRaR




Category:TV > HEVC/x265
Lang:English  English
Total Size:563 MB
Info Hash:bf633fb930df9c80273ccaa468ea755a028622b7
Added By:UTR
Date Added:06-05-2019 02:18:42

Files

File List: 
 File Size
Mom.S06E21.1080p.AMZN.WEB-DL.x265.10bit.EAC3.6.0-Qman[UTR].mkv563 MB



Loading...
Comments

There are currently no comments. Be the first one to write something !