john wick 幼女 godzilla king of the monsters 2019 men in black the hustle 2019 fast furious presents hobbs shaw 2019 xxx once upon a time in hollywood 2019 long shot 2019 Fear the Walking Dead ddr dora and the lost city of gold 2019 avengers endgame avengers endgame 2019 john wick chapter 3 – parabellum 2019 angel has fallen 2019 annabelle comes home 2019 ready or not 2019 queen of the south the lion king 2019 scary stories to tell in the dark 2019 midsommar 2019 47 meters down uncaged 2019 Killjoys  toy story 4 2019 brightburn 2019 arrow español dark phoenix 2019 0 Dark Phoenix ETTV 2.0 (2018) the secret life of pets 2 2019 ma 2019 aladdin Mindhunter hindi suits spider man far from home 2019 aladdin 2019 etrg John wick 3 men in black international pennyworth preacher shazam 2019 queen of the south s04e12 Article 15 the kitchen 2019 snowfall s03e07 peaky blinders hellboy 2019 sextuplets 2019 etmovies 13 reasons why good boys 2019 motogp angel has fallen yts crawl 2019 the angry birds movie 2 2019 yellowstone s02e09 kabir singh evo the boys power s06e01 anna 2019 ethd men in black international 2019 power night hunter 2019 
Warning! Use a VPN When Downloading Torrents!
Your IP Address is 3.81.28.94. Location is United States
Your Internet Provider is tracking your torrent activity! Hide your IP ADDRESS with a VPN!
We strongly recommend using ExpressVPN to anonymize your torrenting. 30 Day Money Back Guarantee!
Try it Now!
ETTV Recommended TV Shows
Pennyworth.S01E06.Cilla.Black.720p.AMZN.WEB-DL.DDP5.1.H.264-NTG[ettv] torrent
Peaky.Blinders.S05E01.HDTV.x264-BRISK[ettv] torrent
Poldark.2015.S05E07.HDTV.x264-LiNKLE[ettv] torrent
Instinct.US.S02E11.HDTV.x264-LucidTV[ettv] torrent

ETTV Recommended SD
Status Pending.2019.HDRip.XviD.AC3-EVO[EtMovies] torrent
Sweet Inspirations.2019.HDRip.XviD.AC3-EVO[EtMovies] torrent
Aladdin.2019.BRRip.XViD.AC3-ETRG torrent
Woodstock.Or.Bust.2019.HDRip.XviD.AC3-EVO[EtMovies] torrent

ETTV Recommended HD
John.Wick.Chapter.3.Parabellum.2019.1080p.AMZN.WEB-DL.DDP5.1.H.264-NTG[EtHD] torrent
Men in Black International 2019.MULTi.BluRay.1080p.ATMOS.7.1.HEVC-DDR[EtHD] torrent
Fanatic.2019.1080p.NF.WEB-DL.H264-ETRG[EtHD] torrent
Aladdin 2019.MULTi.BluRay.1080p.DTS-HDMA.7.1.HEVC-DDR[EtHD] torrent

ETTV Recommended UHD
The.Hustle.2019.2160p.WEBRip.SDR.DTS-HD.MA.7.1HEVC-DDR[EtHD] torrent
Men in Black International 2019.MULTi.UHD.BluRay.2160p.Atmos.7.1.HEVC-DDR torrent
The Fog.1980.4K.HDR.2160p.BDRip Ita Eng x265-NAHOM torrent
Apocalypse Now 1979.Final.Cut.UHD.Blu-ray.2160p.HDR.ATMOS.7.1.HEVC-DDR torrent

ETTV Recommended Cam
Good Boys 2019 HDCAM x264 AC3-ETRG torrent
Crawl 2019 NEW HDCAM x264 AC3-ETRG torrent
Angel Has Fallen 2019 HDCAM x264 AC3-ETRG torrent
The Lion King 2019 NEW HDCAM x264 AC3-ETRG torrent

ETTV Recommended Foreign
Xenophobia (2019) 720P WEB-DL [Hindi-Dub] x264 - KatmovieHD torrent
I Soliti Idioti 1-2 (2011-2012), [H264 - Ita Ac3 5.1 - Sub Ita Eng][TNTVillage] by SnakeSPL79 torrent
G Affairs 2018 CHN.BluRay 1080p TrueHD 5.1.HEVC-DDR[EtHD] torrent
Student of the Year 2 2019.1080p.AMZN.WEB-Rip.DDP5.1.HEVC-DDR[EtHD] torrent


Download Torrent "Alien (1979) DC (1080p BluRay x265 HEVC 10bit AAC 5.1 Joy) [UTR]"

IMDB Details
Description:

N/A

Genre:

N/A

Download Torrent (Magnet)
Download Torrent (File)
Seeds: 8
Leechers: 2
Completed:
Last Checked: 06-05-2019 02:26:04


Loading...
Details
Title:Alien (1979) DC (1080p BluRay x265 HEVC 10bit AAC 5.1 Joy) [UTR]
Description:





Media Information
General
Format                                   : Matroska
Format version                           : Version 4 / Version 2
File size                                : 1.62 GiB
Duration                                 : 1 h 56 min
Overall bit rate                         : 1 985 kb/s
Movie name                               : Alien 1979 DC  (1080p x265 10bit FS84 Joy) [UTR]
Encoded date                             : UTC 2019-04-28 19:58:32
Writing application                      : mkvmerge v33.1.0 ('Primrose') 64-bit
Writing library                          : libebml v1.3.7 + libmatroska v1.5.0
Attachments                              : folder.jpg
Writing frontend                         : StaxRip v1.8.2.0

Video
ID                                       : 1
Format                                   : HEVC
Format/Info                              : High Efficiency Video Coding
Format profile                           : Main [email protected]@Main
Codec ID                                 : V_MPEGH/ISO/HEVC
Duration                                 : 1 h 55 min
Bit rate                                 : 1 500 kb/s
Width                                    : 1 920 pixels
Height                                   : 800 pixels
Display aspect ratio                     : 2.40:1
Frame rate mode                          : Constant
Frame rate                               : 23.976 (24000/1001) FPS
Color space                              : YUV
Chroma subsampling                       : 4:2:0
Bit depth                                : 10 bits
Bits/(Pixel*Frame)                       : 0.041
Stream size                              : 1.21 GiB (75%)
Writing library                          : x265 3.0_Au+14-c7e5878bdd31:[Windows][MSVC 1916][64 bit] 10bit
Encoding settings                        : cpuid=1111039 / frame-threads=4 / numa-pools=16 / wpp / no-pmode / no-pme / no-psnr / ssim / log-level=2 / input-csp=1 / input-res=1920x800 / interlace=0 / total-frames=166616 / level-idc=0 / high-tier=1 / uhd-bd=0 / ref=4 / no-allow-non-conformance / no-repeat-headers / annexb / no-aud / no-hrd / info / hash=0 / no-temporal-layers / open-gop / min-keyint=23 / keyint=250 / gop-lookahead=0 / bframes=8 / b-adapt=2 / b-pyramid / bframe-bias=40 / rc-lookahead=80 / lookahead-slices=4 / scenecut=40 / radl=0 / no-splice / no-intra-refresh / ctu=64 / min-cu-size=8 / rect / no-amp / max-tu-size=32 / tu-inter-depth=1 / tu-intra-depth=1 / limit-tu=0 / rdoq-level=2 / dynamic-rd=0.00 / ssim-rd / signhide / no-tskip / nr-intra=0 / nr-inter=0 / no-constrained-intra / strong-intra-smoothing / max-merge=3 / limit-refs=3 / limit-modes / me=3 / subme=3 / merange=57 / temporal-mvp / weightp / no-weightb / no-analyze-src-pics / deblock=0:0 / sao / no-sao-non-deblock / rd=4 / early-skip / rskip / no-fast-intra / no-tskip-fast / no-cu-lossless / no-b-intra / splitrd-skip / rdpenalty=0 / psy-rd=0.00 / psy-rdoq=1.00 / no-rd-refine / no-lossless / cbqpoffs=0 / crqpoffs=0 / rc=abr / bitrate=1500 / qcomp=0.60 / qpstep=4 / stats-write=0 / stats-read=2 / cplxblur=20.0 / qblur=0.5 / ipratio=1.40 / pbratio=1.30 / aq-mode=2 / aq-strength=0.80 / cutree / zone-count=0 / no-strict-cbr / qg-size=32 / no-rc-grain / qpmax=69 / qpmin=0 / no-const-vbv / sar=0 / overscan=0 / videoformat=5 / range=0 / colorprim=9 / transfer=16 / colormatrix=9 / chromaloc=0 / display-window=0 / max-cll=0,0 / min-luma=0 / max-luma=1023 / log2-max-poc-lsb=8 / vui-timing-info / vui-hrd-info / slices=1 / no-opt-qp-pps / no-opt-ref-list-length-pps / multi-pass-opt-rps / scenecut-bias=0.05 / no-opt-cu-delta-qp / no-aq-motion / no-hdr / no-hdr-opt / no-dhdr10-opt / no-idr-recovery-sei / analysis-reuse-level=10 / scale-factor=0 / refine-intra=0 / refine-inter=0 / refine-mv=0 / refine-ctu-distortion=0 / limit-sao / ctu-info=0 / no-lowpass-dct / refine-analysis-type=0 / copy-pic=1 / max-ausize-factor=1.0 / no-dynamic-refine / no-single-sei / no-hevc-aq / no-svt / qp-adaptation-range=1.00
Default                                  : Yes
Forced                                   : No
Color range                              : Limited
Color primaries                          : BT.2020
Transfer characteristics                 : SMPTE ST 2084
Matrix coefficients                      : BT.2020 non-constant

Audio #1
ID                                       : 2
Format                                   : AAC
Format/Info                              : Advanced Audio Codec
Format profile                           : LC
Codec ID                                 : A_AAC
Duration                                 : 1 h 55 min
Bit rate                                 : 309 kb/s
Channel(s)                               : 6 channels
Channel positions                        : Front: L C R, Side: L R, LFE
Sampling rate                            : 48.0 kHz
Frame rate                               : 46.875 FPS (1024 spf)
Compression mode                         : Lossy
Delay relative to video                  : 9 ms
Stream size                              : 256 MiB (15%)
Language                                 : English
Default                                  : No
Forced                                   : No

Audio #2
ID                                       : 3
Format                                   : AAC
Format/Info                              : Advanced Audio Codec
Format profile                           : HE-AAC / LC
Codec ID                                 : A_AAC
Duration                                 : 1 h 55 min
Bit rate                                 : 44.9 kb/s
Channel(s)                               : 2 channels
Channel positions                        : Front: L R
Sampling rate                            : 48.0 kHz / 24.0 kHz
Frame rate                               : 23.438 FPS (1024 spf)
Compression mode                         : Lossy
Delay relative to video                  : 31 ms
Stream size                              : 37.2 MiB (2%)
Title                                    : Commentary
Language                                 : English
Default                                  : No
Forced                                   : No

Subtitle #1
ID                                       : 4
Format                                   : UTF-8
Codec ID                                 : S_TEXT/UTF8
Codec ID/Info                            : UTF-8 Plain Text
Duration                                 : 1 h 49 min
Bit rate                                 : 40 b/s
Count of elements                        : 1025
Stream size                              : 32.5 KiB (0%)
Language                                 : English
Default                                  : No
Forced                                   : No

Subtitle #2
ID                                       : 5
Format                                   : UTF-8
Codec ID                                 : S_TEXT/UTF8
Codec ID/Info                            : UTF-8 Plain Text
Duration                                 : 1 h 49 min
Bit rate                                 : 42 b/s
Count of elements                        : 1050
Stream size                              : 34.1 KiB (0%)
Language                                 : English
Default                                  : No
Forced                                   : No

Subtitle #3
ID                                       : 6
Format                                   : VobSub
Muxing mode                              : zlib
Codec ID                                 : S_VOBSUB
Codec ID/Info                            : Picture based subtitle format used on DVDs
Duration                                 : 1 h 49 min
Bit rate                                 : 7 383 b/s
Count of elements                        : 1054
Stream size                              : 5.81 MiB (0%)
Language                                 : English
Default                                  : No
Forced                                   : No

Subtitle #4
ID                                       : 7
Format                                   : VobSub
Muxing mode                              : zlib
Codec ID                                 : S_VOBSUB
Codec ID/Info                            : Picture based subtitle format used on DVDs
Duration                                 : 1 h 53 min
Bit rate                                 : 5 589 b/s
Count of elements                        : 846
Stream size                              : 4.54 MiB (0%)
Language                                 : Spanish
Default                                  : No
Forced                                   : No

Subtitle #5
ID                                       : 8
Format                                   : VobSub
Muxing mode                              : zlib
Codec ID                                 : S_VOBSUB
Codec ID/Info                            : Picture based subtitle format used on DVDs
Duration                                 : 1 h 53 min
Bit rate                                 : 4 865 b/s
Count of elements                        : 702
Stream size                              : 3.96 MiB (0%)
Language                                 : French
Default                                  : No
Forced                                   : No

Subtitle #6
ID                                       : 9
Format                                   : VobSub
Muxing mode                              : zlib
Codec ID                                 : S_VOBSUB
Codec ID/Info                            : Picture based subtitle format used on DVDs
Duration                                 : 1 h 50 min
Bit rate                                 : 5 219 b/s
Count of elements                        : 796
Stream size                              : 4.13 MiB (0%)
Language                                 : Spanish
Default                                  : No
Forced                                   : No

Subtitle #7
ID                                       : 10
Format                                   : VobSub
Muxing mode                              : zlib
Codec ID                                 : S_VOBSUB
Codec ID/Info                            : Picture based subtitle format used on DVDs
Duration                                 : 1 h 53 min
Bit rate                                 : 4 524 b/s
Count of elements                        : 767
Stream size                              : 3.68 MiB (0%)
Language                                 : Danish
Default                                  : No
Forced                                   : No

Subtitle #8
ID                                       : 11
Format                                   : VobSub
Muxing mode                              : zlib
Codec ID                                 : S_VOBSUB
Codec ID/Info                            : Picture based subtitle format used on DVDs
Duration                                 : 1 h 50 min
Bit rate                                 : 4 382 b/s
Count of elements                        : 631
Stream size                              : 3.47 MiB (0%)
Language                                 : Dutch
Default                                  : No
Forced                                   : No

Subtitle #9
ID                                       : 12
Format                                   : VobSub
Muxing mode                              : zlib
Codec ID                                 : S_VOBSUB
Codec ID/Info                            : Picture based subtitle format used on DVDs
Duration                                 : 1 h 50 min
Bit rate                                 : 5 152 b/s
Count of elements                        : 710
Stream size                              : 4.08 MiB (0%)
Language                                 : Finnish
Default                                  : No
Forced                                   : No

Subtitle #10
ID                                       : 13
Format                                   : VobSub
Muxing mode                              : zlib
Codec ID                                 : S_VOBSUB
Codec ID/Info                            : Picture based subtitle format used on DVDs
Duration                                 : 1 h 50 min
Bit rate                                 : 5 858 b/s
Count of elements                        : 792
Stream size                              : 4.63 MiB (0%)
Language                                 : German
Default                                  : No
Forced                                   : No

Subtitle #11
ID                                       : 14
Format                                   : VobSub
Muxing mode                              : zlib
Codec ID                                 : S_VOBSUB
Codec ID/Info                            : Picture based subtitle format used on DVDs
Duration                                 : 1 h 50 min
Bit rate                                 : 5 165 b/s
Count of elements                        : 778
Stream size                              : 4.09 MiB (0%)
Language                                 : Italian
Default                                  : No
Forced                                   : No

Subtitle #12
ID                                       : 15
Format                                   : VobSub
Muxing mode                              : zlib
Codec ID                                 : S_VOBSUB
Codec ID/Info                            : Picture based subtitle format used on DVDs
Duration                                 : 1 h 50 min
Bit rate                                 : 2 349 b/s
Count of elements                        : 640
Stream size                              : 1.86 MiB (0%)
Language                                 : Japanese
Default                                  : No
Forced                                   : No

Subtitle #13
ID                                       : 16
Format                                   : VobSub
Muxing mode                              : zlib
Codec ID                                 : S_VOBSUB
Codec ID/Info                            : Picture based subtitle format used on DVDs
Duration                                 : 1 h 32 min
Bit rate                                 : 79 b/s
Count of elements                        : 13
Stream size                              : 53.8 KiB (0%)
Language                                 : Japanese
Default                                  : No
Forced                                   : No

Subtitle #14
ID                                       : 17
Format                                   : VobSub
Muxing mode                              : zlib
Codec ID                                 : S_VOBSUB
Codec ID/Info                            : Picture based subtitle format used on DVDs
Duration                                 : 1 h 50 min
Bit rate                                 : 4 932 b/s
Count of elements                        : 780
Stream size                              : 3.90 MiB (0%)
Language                                 : Norwegian Bokmal
Default                                  : No
Forced                                   : No

Subtitle #15
ID                                       : 18
Format                                   : VobSub
Muxing mode                              : zlib
Codec ID                                 : S_VOBSUB
Codec ID/Info                            : Picture based subtitle format used on DVDs
Duration                                 : 1 h 50 min
Bit rate                                 : 4 942 b/s
Count of elements                        : 764
Stream size                              : 3.91 MiB (0%)
Language                                 : Swedish
Default                                  : No
Forced                                   : No

Subtitle #16
ID                                       : 19
Format                                   : VobSub
Muxing mode                              : zlib
Codec ID                                 : S_VOBSUB
Codec ID/Info                            : Picture based subtitle format used on DVDs
Duration                                 : 1 h 50 min
Bit rate                                 : 3 627 b/s
Count of elements                        : 786
Stream size                              : 2.87 MiB (0%)
Language                                 : Chinese
Default                                  : No
Forced                                   : No

Subtitle #17
ID                                       : 20
Format                                   : VobSub
Muxing mode                              : zlib
Codec ID                                 : S_VOBSUB
Codec ID/Info                            : Picture based subtitle format used on DVDs
Duration                                 : 1 h 50 min
Bit rate                                 : 4 593 b/s
Count of elements                        : 745
Stream size                              : 3.64 MiB (0%)
Language                                 : Czech
Default                                  : No
Forced                                   : No

Subtitle #18
ID                                       : 21
Format                                   : VobSub
Muxing mode                              : zlib
Codec ID                                 : S_VOBSUB
Codec ID/Info                            : Picture based subtitle format used on DVDs
Duration                                 : 1 h 50 min
Bit rate                                 : 3 636 b/s
Count of elements                        : 779
Stream size                              : 2.88 MiB (0%)
Language                                 : Korean
Default                                  : No
Forced                                   : No

Subtitle #19
ID                                       : 22
Format                                   : VobSub
Muxing mode                              : zlib
Codec ID                                 : S_VOBSUB
Codec ID/Info                            : Picture based subtitle format used on DVDs
Duration                                 : 1 h 50 min
Bit rate                                 : 3 158 b/s
Count of elements                        : 791
Stream size                              : 2.50 MiB (0%)
Language                                 : Chinese
Default                                  : No
Forced                                   : No

Subtitle #20
ID                                       : 23
Format                                   : VobSub
Muxing mode                              : zlib
Codec ID                                 : S_VOBSUB
Codec ID/Info                            : Picture based subtitle format used on DVDs
Duration                                 : 1 h 53 min
Bit rate                                 : 4 604 b/s
Count of elements                        : 708
Stream size                              : 3.75 MiB (0%)
Language                                 : Polish
Default                                  : No
Forced                                   : No

Subtitle #21
ID                                       : 24
Format                                   : VobSub
Muxing mode                              : zlib
Codec ID                                 : S_VOBSUB
Codec ID/Info                            : Picture based subtitle format used on DVDs
Duration                                 : 1 h 53 min
Bit rate                                 : 4 036 b/s
Count of elements                        : 786
Stream size                              : 3.29 MiB (0%)
Language                                 : Thai
Default                                  : No
Forced                                   : No

Subtitle #22
ID                                       : 25
Format                                   : VobSub
Muxing mode                              : zlib
Codec ID                                 : S_VOBSUB
Codec ID/Info                            : Picture based subtitle format used on DVDs
Duration                                 : 1 h 55 min
Bit rate                                 : 20.2 kb/s
Count of elements                        : 1919
Stream size                              : 16.7 MiB (1%)
Language                                 : English
Default                                  : No
Forced                                   : No

Subtitle #23
ID                                       : 26
Format                                   : VobSub
Muxing mode                              : zlib
Codec ID                                 : S_VOBSUB
Codec ID/Info                            : Picture based subtitle format used on DVDs
Duration                                 : 1 h 55 min
Bit rate                                 : 17.3 kb/s
Count of elements                        : 1872
Stream size                              : 14.3 MiB (1%)
Language                                 : French
Default                                  : No
Forced                                   : No

Subtitle #24
ID                                       : 27
Format                                   : VobSub
Muxing mode                              : zlib
Codec ID                                 : S_VOBSUB
Codec ID/Info                            : Picture based subtitle format used on DVDs
Duration                                 : 1 h 55 min
Bit rate                                 : 16.4 kb/s
Count of elements                        : 1862
Stream size                              : 13.5 MiB (1%)
Language                                 : Spanish
Default                                  : No
Forced                                   : No

Subtitle #25
ID                                       : 28
Format                                   : VobSub
Muxing mode                              : zlib
Codec ID                                 : S_VOBSUB
Codec ID/Info                            : Picture based subtitle format used on DVDs
Duration                                 : 1 h 55 min
Bit rate                                 : 20.2 kb/s
Count of elements                        : 1965
Stream size                              : 16.7 MiB (1%)
Language                                 : German
Default                                  : No
Forced                                   : No

Subtitle #26
ID                                       : 29
Format                                   : VobSub
Muxing mode                              : zlib
Codec ID                                 : S_VOBSUB
Codec ID/Info                            : Picture based subtitle format used on DVDs
Duration                                 : 1 h 55 min
Bit rate                                 : 17.7 kb/s
Count of elements                        : 1856
Stream size                              : 14.7 MiB (1%)
Language                                 : Italian
Default                                  : No
Forced                                   : No

Subtitle #27
ID                                       : 30
Format                                   : VobSub
Muxing mode                              : zlib
Codec ID                                 : S_VOBSUB
Codec ID/Info                            : Picture based subtitle format used on DVDs
Duration                                 : 1 h 55 min
Bit rate                                 : 10.4 kb/s
Count of elements                        : 1625
Stream size                              : 8.57 MiB (1%)
Language                                 : Japanese
Default                                  : No
Forced                                   : No

Subtitle #28
ID                                       : 31
Format                                   : VobSub
Muxing mode                              : zlib
Codec ID                                 : S_VOBSUB
Codec ID/Info                            : Picture based subtitle format used on DVDs
Duration                                 : 1 h 55 min
Bit rate                                 : 6 914 b/s
Count of elements                        : 787
Stream size                              : 5.69 MiB (0%)
Language                                 : English
Default                                  : No
Forced                                   : No

Subtitle #29
ID                                       : 32
Format                                   : VobSub
Muxing mode                              : zlib
Codec ID                                 : S_VOBSUB
Codec ID/Info                            : Picture based subtitle format used on DVDs
Duration                                 : 1 h 55 min
Bit rate                                 : 6 003 b/s
Count of elements                        : 761
Stream size                              : 4.96 MiB (0%)
Language                                 : French
Default                                  : No
Forced                                   : No

Subtitle #30
ID                                       : 33
Format                                   : VobSub
Muxing mode                              : zlib
Codec ID                                 : S_VOBSUB
Codec ID/Info                            : Picture based subtitle format used on DVDs
Duration                                 : 1 h 55 min
Bit rate                                 : 6 222 b/s
Count of elements                        : 760
Stream size                              : 5.14 MiB (0%)
Language                                 : Spanish
Default                                  : No
Forced                                   : No

Subtitle #31
ID                                       : 34
Format                                   : VobSub
Muxing mode                              : zlib
Codec ID                                 : S_VOBSUB
Codec ID/Info                            : Picture based subtitle format used on DVDs
Duration                                 : 1 h 55 min
Bit rate                                 : 7 286 b/s
Count of elements                        : 760
Stream size                              : 6.02 MiB (0%)
Language                                 : German
Default                                  : No
Forced                                   : No

Subtitle #32
ID                                       : 35
Format                                   : VobSub
Muxing mode                              : zlib
Codec ID                                 : S_VOBSUB
Codec ID/Info                            : Picture based subtitle format used on DVDs
Duration                                 : 1 h 55 min
Bit rate                                 : 6 672 b/s
Count of elements                        : 757
Stream size                              : 5.51 MiB (0%)
Language                                 : Italian
Default                                  : No
Forced                                   : No

Subtitle #33
ID                                       : 36
Format                                   : VobSub
Muxing mode                              : zlib
Codec ID                                 : S_VOBSUB
Codec ID/Info                            : Picture based subtitle format used on DVDs
Duration                                 : 1 h 55 min
Bit rate                                 : 3 852 b/s
Count of elements                        : 540
Stream size                              : 3.17 MiB (0%)
Language                                 : Japanese
Default                                  : No
Forced                                   : No

Subtitle #34
ID                                       : 37
Format                                   : UTF-8
Codec ID                                 : S_TEXT/UTF8
Codec ID/Info                            : UTF-8 Plain Text
Duration                                 : 1 h 51 min
Bit rate                                 : 46 b/s
Count of elements                        : 1064
Stream size                              : 38.3 KiB (0%)
Language                                 : Arabic
Default                                  : No
Forced                                   : No

Subtitle #35
ID                                       : 38
Format                                   : UTF-8
Codec ID                                 : S_TEXT/UTF8
Codec ID/Info                            : UTF-8 Plain Text
Duration                                 : 1 h 51 min
Bit rate                                 : 32 b/s
Count of elements                        : 811
Stream size                              : 26.9 KiB (0%)
Language                                 : Portuguese
Default                                  : No
Forced                                   : No

Subtitle #36
ID                                       : 39
Format                                   : UTF-8
Codec ID                                 : S_TEXT/UTF8
Codec ID/Info                            : UTF-8 Plain Text
Duration                                 : 1 h 50 min
Bit rate                                 : 41 b/s
Count of elements                        : 670
Stream size                              : 33.6 KiB (0%)
Language                                 : Persian
Default                                  : No
Forced                                   : No

Subtitle #37
ID                                       : 40
Format                                   : UTF-8
Codec ID                                 : S_TEXT/UTF8
Codec ID/Info                            : UTF-8 Plain Text
Duration                                 : 1 h 54 min
Bit rate                                 : 44 b/s
Count of elements                        : 758
Stream size                              : 37.3 KiB (0%)
Language                                 : Greek
Default                                  : No
Forced                                   : No

Subtitle #38
ID                                       : 41
Format                                   : UTF-8
Codec ID                                 : S_TEXT/UTF8
Codec ID/Info                            : UTF-8 Plain Text
Duration                                 : 1 h 50 min
Bit rate                                 : 34 b/s
Count of elements                        : 793
Stream size                              : 28.3 KiB (0%)
Language                                 : Hungarian
Default                                  : No
Forced                                   : No

Subtitle #39
ID                                       : 42
Format                                   : UTF-8
Codec ID                                 : S_TEXT/UTF8
Codec ID/Info                            : UTF-8 Plain Text
Duration                                 : 1 h 56 min
Bit rate                                 : 26 b/s
Count of elements                        : 677
Stream size                              : 22.3 KiB (0%)
Language                                 : Romanian
Default                                  : No
Forced                                   : No

Subtitle #40
ID                                       : 43
Format                                   : UTF-8
Codec ID                                 : S_TEXT/UTF8
Codec ID/Info                            : UTF-8 Plain Text
Duration                                 : 1 h 51 min
Bit rate                                 : 39 b/s
Count of elements                        : 719
Stream size                              : 32.3 KiB (0%)
Language                                 : Vietnamese
Default                                  : No
Forced                                   : No

Menu
00:00:00.000                             : :Chapter 1
00:01:59.119                             : :Chapter 2
00:04:38.111                             : :Chapter 3
00:07:53.848                             : :Chapter 4
00:09:08.506                             : :Chapter 5
00:12:38.424                             : :Chapter 6
00:14:14.103                             : :Chapter 7
00:20:03.910                             : :Chapter 8
00:23:20.649                             : :Chapter 9
00:25:03.251                             : :Chapter 10
00:27:48.875                             : :Chapter 11
00:31:49.824                             : :Chapter 12
00:35:30.920                             : :Chapter 13
00:37:03.179                             : :Chapter 14
00:40:31.887                             : :Chapter 15
00:43:24.518                             : :Chapter 16
00:47:26.301                             : :Chapter 17
00:50:04.125                             : :Chapter 18
00:51:42.307                             : :Chapter 19
00:54:22.675                             : :Chapter 20
00:58:59.744                             : :Chapter 21
01:00:24.870                             : :Chapter 22
01:03:34.310                             : :Chapter 23
01:08:16.717                             : :Chapter 24
01:10:02.948                             : :Chapter 25
01:12:50.407                             : :Chapter 26
01:14:31.925                             : :Chapter 27
01:17:12.711                             : :Chapter 28
01:19:00.902                             : :Chapter 29
01:22:32.280                             : :Chapter 30
01:26:37.233                             : :Chapter 31
01:28:47.571                             : :Chapter 32
01:30:46.732                             : :Chapter 33
01:32:37.760                             : :Chapter 34
01:34:21.780                             : :Chapter 35
01:37:43.148                             : :Chapter 36
01:39:12.446                             : :Chapter 37
01:43:26.241                             : :Chapter 38
01:46:15.952                             : :Chapter 39
01:53:03.609                             : :Chapter 40



Source Information
Release: Alien.1979.DC.2160p.BluRay.REMUX.HEVC.DTS-HD.MA.5.1-FGT  [52.5 GB]


Note From UTR
We have no issue with individuals posting or re-uploading our torrents on a platform we aren't on. However, if this is something you'd like to do, please do so in a 'as-is' format. We ask that you do not create a new torrent, include all descriptions you see above including the UTR logo, tags, notes and screenshots. If you'd like to become a permanent poster on a website we don't post to, feel free to get in contact with a UniTeam member.
If possible please donate: BTC 1QA5fum5AyXvWzdVCkQzUNvw3Ef15fHRaR




Category:Movies > HEVC/x265
Lang:English  English
Total Size:1.62 GB
Info Hash:a7ded0e75e74531d905537790cd033cb6ab8eeeb
Added By:UTR
Date Added:06-05-2019 02:26:01

Files

File List: 
 File Size
Alien 1979 DC (1080p x265 10bit FS84 Joy).mkv1.62 GB



Loading...
Comments

There are currently no comments. Be the first one to write something !