cold pursuit 2019 warrior captain marvel john wick hawaii five 0 s09e25 young sheldon s02e22 CHERNOBYL aladdin 2019 a madea family funeral 2019 evo little 2019 the curse of la llorona 2019 the mule 2018 glass 2019 tushyraw 1080p.mp4-ktr john wick 3 the blacklist s06e22 avengers endgame 2019 us 2019 ethd ettv brightburn 2019 0 the upside 2019 the intruder 2019 The Blacklist agents of shield hellboy 2019 the lego movie 2 the second part 2019 brooklyn nine nine game of thrones s08e04 long shot 2019 captain marvel 2019 Game of Thrones S08E05 the big bang theory s12e24 Big Bang Theory extremely wicked shockingly evil and vile 2019 how to train your dragon the hidden world 2019 spider man into the spider verse 2018 ddr etrg john wick chapter 3 – parabellum 2019 the hustle 2019 marvels agents of shield s06e02 etmovies the big bang theory s12e23 john wick 2014 hindi yts uglydolls 2019 The Flash shazam 2019 avengers infinity war 2018 Game of Thrones blacklist doom patrol s01e14 the big bang theory pet sematary 2019 what men want 2019 aquaman 2018 tushy 18.12 1080p.mp4-ktr 2.0 (2018) warrior s01e07 alita battle angel 2019 pokemon detective pikachu 2019 Avengers endgame Killing Eve fighting with my family 2019 dumbo 2019 greys anatomy s15e25 doom patrol john wick chapter 2 2017 
Warning! Use a VPN When Downloading Torrents!
Your IP Address is 18.234.88.196. Location is United States
Your Internet Provider is tracking your torrent activity! Hide your IP ADDRESS with a VPN!
We strongly recommend using ExpressVPN to anonymize your torrenting. 30 Day Money Back Guarantee!
Try it Now!
ETTV Recommended TV Shows
Warrior.S01E07.720p.WEB.h264-TBS[ettv] torrent
Dynasty.2017.S02E21.WEB.h264-TBS[ettv] torrent
Ransom.S03E12.HDTV.x264-SVA[ettv] torrent
The.Son.S02E04.WEB.h264-TBS[ettv] torrent
Marvels.Guardians.of.the.Galaxy.S03E18.WEB.x264-TBS[ettv] torrent
Deep.State.S02E01.HDTV.x264-MTB[ettv] torrent

ETTV Recommended SD
See.You.Yesterday.2019.NF.HDRip.XViD-ETRG torrent
Bardo.Blues.2017.HDRip.XviD.AC3-EVO torrent
Breakneck.2019.HDRip.XviD.AC3-EVO torrent
The.Siren.2019.HDRip.XViD-ETRG torrent

ETTV Recommended HD
Never Grow Old 2019.BluRay.1080p.HEVC.DTS-HDMA.5.1-DDR torrent
The.Brawler.2019.1080p.NF.WEB-DL.H264-ETRG[EtHD] torrent
The Siren 2019.1080p.AMZN.HDRip.DDP.2.0-DDR torrent
They Look Like People 2015.1080p.AMZN.HDRip.DDP.2.0-DDR torrent

ETTV Recommended UHD
The Bridge on The River Kwai 1957.UHD.Blu-ray.1080.HDR.Atmos.7.1-DDR torrent
Crank 2006.UHD.BluRay.2160p.HDR.HEVC.Atmos.7.1-DDR torrent
Aquaman 2018 1080p BDrip  x265 7.1 TrueHD Atmos D0ct0rLew[SEV] torrent
Field of Dreams 1989.Multi.UHD.2160p.Blu-ray.HDR.HEVC.DTS-HDMA.5.1-DDR torrent

ETTV Recommended Cam
Brightburn 2019 HDCAM x264 AC3-ETRG torrent
The Hustle 2019 HDCAM x264 AC3 ETRG torrent
Pokemon  Detective Pikachu 2019 HDCAM x264 AC3-ETRG torrent
John Wick 3 2019 HDCAM x264 -ETRG torrent

ETTV Recommended Foreign
Chitralahari 2019.AMZN.HDrip.1080p.HEVC.DDP.5.1-DDR torrent
Paris Pigalle 2018.1080p.AMZN.HDRip.DDP5.1-DDR torrent
Mon Jaane Na.2019.1080p.WEB-DL.AVC.AAC.DDR torrent
Bumblebee.(2018).[1080p].[Dual.Audio].[Org.DD].{Hindi+Eng.6Ch}.-~{DOOMSDAY}~-. torrent


Download Torrent "Alien (1979) DC (1080p BluRay x265 HEVC 10bit AAC 5.1 Q22 Joy) [UTR]"

IMDB Details
Description:

N/A

Genre:

N/A

Download Torrent (Magnet)
Download Torrent (File)
Seeds: 3
Leechers: 18
Completed:
Last Checked: 06-05-2019 02:27:38


Loading...
Details
Title:Alien (1979) DC (1080p BluRay x265 HEVC 10bit AAC 5.1 Q22 Joy) [UTR]
Description:





Media Information
General
Format                                   : Matroska
Format version                           : Version 4 / Version 2
File size                                : 2.66 GiB
Duration                                 : 1 h 56 min
Overall bit rate                         : 3 270 kb/s
Movie name                               : lien 1979 DC  (1080p x265 q22 FS86 Joy) [UTR]
Encoded date                             : UTC 2019-04-28 20:02:12
Writing application                      : mkvmerge v33.1.0 ('Primrose') 64-bit
Writing library                          : libebml v1.3.7 + libmatroska v1.5.0
Attachments                              : folder.jpg
Writing frontend                         : StaxRip v1.8.2.0

Video
ID                                       : 1
Format                                   : HEVC
Format/Info                              : High Efficiency Video Coding
Format profile                           : Main [email protected]@Main
Codec ID                                 : V_MPEGH/ISO/HEVC
Duration                                 : 1 h 55 min
Bit rate                                 : 2 341 kb/s
Width                                    : 1 920 pixels
Height                                   : 800 pixels
Display aspect ratio                     : 2.40:1
Frame rate mode                          : Constant
Frame rate                               : 23.976 (24000/1001) FPS
Color space                              : YUV
Chroma subsampling                       : 4:2:0
Bit depth                                : 10 bits
Bits/(Pixel*Frame)                       : 0.064
Stream size                              : 1.89 GiB (71%)
Writing library                          : x265 3.0_Au+14-c7e5878bdd31:[Windows][MSVC 1916][64 bit] 10bit
Encoding settings                        : cpuid=1111039 / frame-threads=4 / numa-pools=16 / wpp / no-pmode / no-pme / no-psnr / ssim / log-level=2 / input-csp=1 / input-res=1920x800 / interlace=0 / total-frames=166616 / level-idc=0 / high-tier=1 / uhd-bd=0 / ref=4 / no-allow-non-conformance / no-repeat-headers / annexb / no-aud / no-hrd / info / hash=0 / no-temporal-layers / open-gop / min-keyint=23 / keyint=250 / gop-lookahead=0 / bframes=8 / b-adapt=2 / b-pyramid / bframe-bias=20 / rc-lookahead=80 / lookahead-slices=4 / scenecut=40 / radl=0 / no-splice / no-intra-refresh / ctu=64 / min-cu-size=8 / rect / no-amp / max-tu-size=32 / tu-inter-depth=1 / tu-intra-depth=1 / limit-tu=0 / rdoq-level=2 / dynamic-rd=0.00 / ssim-rd / signhide / no-tskip / nr-intra=0 / nr-inter=0 / no-constrained-intra / strong-intra-smoothing / max-merge=3 / limit-refs=3 / limit-modes / me=3 / subme=3 / merange=57 / temporal-mvp / weightp / no-weightb / no-analyze-src-pics / deblock=-2:-2 / sao / sao-non-deblock / rd=4 / early-skip / rskip / no-fast-intra / no-tskip-fast / no-cu-lossless / no-b-intra / no-splitrd-skip / rdpenalty=0 / psy-rd=0.00 / psy-rdoq=1.00 / no-rd-refine / no-lossless / cbqpoffs=0 / crqpoffs=0 / rc=crf / crf=21.5 / qcomp=0.60 / qpstep=4 / stats-write=0 / stats-read=0 / ipratio=1.40 / pbratio=1.30 / aq-mode=3 / aq-strength=1.00 / cutree / zone-count=0 / no-strict-cbr / qg-size=32 / no-rc-grain / qpmax=69 / qpmin=0 / no-const-vbv / sar=0 / overscan=0 / videoformat=5 / range=0 / colorprim=9 / transfer=16 / colormatrix=9 / chromaloc=0 / display-window=0 / max-cll=0,0 / min-luma=0 / max-luma=1023 / log2-max-poc-lsb=8 / vui-timing-info / vui-hrd-info / slices=1 / no-opt-qp-pps / no-opt-ref-list-length-pps / no-multi-pass-opt-rps / scenecut-bias=0.05 / no-opt-cu-delta-qp / no-aq-motion / no-hdr / no-hdr-opt / no-dhdr10-opt / no-idr-recovery-sei / analysis-reuse-level=5 / scale-factor=0 / refine-intra=0 / refine-inter=0 / refine-mv=0 / refine-ctu-distortion=0 / no-limit-sao / ctu-info=0 / no-lowpass-dct / refine-analysis-type=892928 / copy-pic=1 / max-ausize-factor=1.0 / no-dynamic-refine / no-single-sei / no-hevc-aq / no-svt / qp-adaptation-range=1.00
Default                                  : Yes
Forced                                   : No
Color range                              : Limited
Color primaries                          : BT.2020
Transfer characteristics                 : SMPTE ST 2084
Matrix coefficients                      : BT.2020 non-constant

Audio #1
ID                                       : 2
Format                                   : AAC
Format/Info                              : Advanced Audio Codec
Format profile                           : LC
Codec ID                                 : A_AAC
Duration                                 : 1 h 55 min
Bit rate                                 : 362 kb/s
Channel(s)                               : 6 channels
Channel positions                        : Front: L C R, Side: L R, LFE
Sampling rate                            : 48.0 kHz
Frame rate                               : 46.875 FPS (1024 spf)
Compression mode                         : Lossy
Delay relative to video                  : 9 ms
Stream size                              : 300 MiB (11%)
Language                                 : English
Default                                  : No
Forced                                   : No

Audio #2
ID                                       : 3
Format                                   : AAC
Format/Info                              : Advanced Audio Codec
Format profile                           : LC
Codec ID                                 : A_AAC
Duration                                 : 1 h 55 min
Bit rate                                 : 89.1 kb/s
Channel(s)                               : 2 channels
Channel positions                        : Front: L R
Sampling rate                            : 48.0 kHz
Frame rate                               : 46.875 FPS (1024 spf)
Compression mode                         : Lossy
Delay relative to video                  : 9 ms
Stream size                              : 73.8 MiB (3%)
Language                                 : Spanish
Default                                  : No
Forced                                   : No

Audio #3
ID                                       : 4
Format                                   : AAC
Format/Info                              : Advanced Audio Codec
Format profile                           : HE-AAC / LC
Codec ID                                 : A_AAC
Duration                                 : 1 h 55 min
Bit rate                                 : 44.9 kb/s
Channel(s)                               : 2 channels
Channel positions                        : Front: L R
Sampling rate                            : 48.0 kHz / 24.0 kHz
Frame rate                               : 23.438 FPS (1024 spf)
Compression mode                         : Lossy
Delay relative to video                  : 31 ms
Stream size                              : 37.2 MiB (1%)
Title                                    : Commentary
Language                                 : English
Default                                  : No
Forced                                   : No

Audio #4
ID                                       : 5
Format                                   : AAC
Format/Info                              : Advanced Audio Codec
Format profile                           : HE-AAC / LC
Codec ID                                 : A_AAC
Duration                                 : 1 h 55 min
Bit rate                                 : 48.0 kb/s
Channel(s)                               : 2 channels
Channel positions                        : Front: L R
Sampling rate                            : 48.0 kHz / 24.0 kHz
Frame rate                               : 23.438 FPS (1024 spf)
Compression mode                         : Lossy
Delay relative to video                  : 31 ms
Stream size                              : 41.3 MiB (2%)
Title                                    : Commentary 2
Language                                 : English
Default                                  : No
Forced                                   : No

Audio #5
ID                                       : 6
Format                                   : AAC
Format/Info                              : Advanced Audio Codec
Format profile                           : HE-AAC / LC
Codec ID                                 : A_AAC
Duration                                 : 1 h 55 min
Bit rate                                 : 21.6 kb/s
Channel(s)                               : 2 channels
Channel positions                        : Front: L R
Sampling rate                            : 48.0 kHz / 24.0 kHz
Frame rate                               : 23.438 FPS (1024 spf)
Compression mode                         : Lossy
Delay relative to video                  : 31 ms
Stream size                              : 17.9 MiB (1%)
Title                                    : Commentary 3
Language                                 : English
Default                                  : No
Forced                                   : No

Audio #6
ID                                       : 7
Format                                   : AAC
Format/Info                              : Advanced Audio Codec
Format profile                           : LC
Codec ID                                 : A_AAC
Duration                                 : 1 h 55 min
Bit rate                                 : 91.6 kb/s
Channel(s)                               : 2 channels
Channel positions                        : Front: L R
Sampling rate                            : 48.0 kHz
Frame rate                               : 46.875 FPS (1024 spf)
Compression mode                         : Lossy
Delay relative to video                  : 9 ms
Stream size                              : 75.9 MiB (3%)
Language                                 : French
Default                                  : No
Forced                                   : No

Audio #7
ID                                       : 8
Format                                   : AAC
Format/Info                              : Advanced Audio Codec
Format profile                           : LC
Codec ID                                 : A_AAC
Duration                                 : 1 h 55 min
Bit rate                                 : 91.2 kb/s
Channel(s)                               : 2 channels
Channel positions                        : Front: L R
Sampling rate                            : 48.0 kHz
Frame rate                               : 46.875 FPS (1024 spf)
Compression mode                         : Lossy
Delay relative to video                  : 9 ms
Stream size                              : 75.6 MiB (3%)
Language                                 : German
Default                                  : No
Forced                                   : No

Audio #8
ID                                       : 9
Format                                   : AAC
Format/Info                              : Advanced Audio Codec
Format profile                           : LC
Codec ID                                 : A_AAC
Duration                                 : 1 h 55 min
Bit rate                                 : 53.9 kb/s
Channel(s)                               : 1 channel
Channel positions                        : Front: C
Sampling rate                            : 48.0 kHz
Frame rate                               : 46.875 FPS (1024 spf)
Compression mode                         : Lossy
Delay relative to video                  : 9 ms
Stream size                              : 44.6 MiB (2%)
Language                                 : Japanese
Default                                  : No
Forced                                   : No

Subtitle #1
ID                                       : 10
Format                                   : UTF-8
Codec ID                                 : S_TEXT/UTF8
Codec ID/Info                            : UTF-8 Plain Text
Duration                                 : 1 h 49 min
Bit rate                                 : 40 b/s
Count of elements                        : 1025
Stream size                              : 32.5 KiB (0%)
Language                                 : English
Default                                  : No
Forced                                   : No

Subtitle #2
ID                                       : 11
Format                                   : UTF-8
Codec ID                                 : S_TEXT/UTF8
Codec ID/Info                            : UTF-8 Plain Text
Duration                                 : 1 h 49 min
Bit rate                                 : 42 b/s
Count of elements                        : 1050
Stream size                              : 34.1 KiB (0%)
Language                                 : English
Default                                  : No
Forced                                   : No

Subtitle #3
ID                                       : 12
Format                                   : VobSub
Muxing mode                              : zlib
Codec ID                                 : S_VOBSUB
Codec ID/Info                            : Picture based subtitle format used on DVDs
Duration                                 : 1 h 49 min
Bit rate                                 : 7 383 b/s
Count of elements                        : 1054
Stream size                              : 5.81 MiB (0%)
Language                                 : English
Default                                  : No
Forced                                   : No

Subtitle #4
ID                                       : 13
Format                                   : VobSub
Muxing mode                              : zlib
Codec ID                                 : S_VOBSUB
Codec ID/Info                            : Picture based subtitle format used on DVDs
Duration                                 : 1 h 53 min
Bit rate                                 : 5 589 b/s
Count of elements                        : 846
Stream size                              : 4.54 MiB (0%)
Language                                 : Spanish
Default                                  : No
Forced                                   : No

Subtitle #5
ID                                       : 14
Format                                   : VobSub
Muxing mode                              : zlib
Codec ID                                 : S_VOBSUB
Codec ID/Info                            : Picture based subtitle format used on DVDs
Duration                                 : 1 h 53 min
Bit rate                                 : 4 865 b/s
Count of elements                        : 702
Stream size                              : 3.96 MiB (0%)
Language                                 : French
Default                                  : No
Forced                                   : No

Subtitle #6
ID                                       : 15
Format                                   : VobSub
Muxing mode                              : zlib
Codec ID                                 : S_VOBSUB
Codec ID/Info                            : Picture based subtitle format used on DVDs
Duration                                 : 1 h 50 min
Bit rate                                 : 5 219 b/s
Count of elements                        : 796
Stream size                              : 4.13 MiB (0%)
Language                                 : Spanish
Default                                  : No
Forced                                   : No

Subtitle #7
ID                                       : 16
Format                                   : VobSub
Muxing mode                              : zlib
Codec ID                                 : S_VOBSUB
Codec ID/Info                            : Picture based subtitle format used on DVDs
Duration                                 : 1 h 53 min
Bit rate                                 : 4 524 b/s
Count of elements                        : 767
Stream size                              : 3.68 MiB (0%)
Language                                 : Danish
Default                                  : No
Forced                                   : No

Subtitle #8
ID                                       : 17
Format                                   : VobSub
Muxing mode                              : zlib
Codec ID                                 : S_VOBSUB
Codec ID/Info                            : Picture based subtitle format used on DVDs
Duration                                 : 1 h 50 min
Bit rate                                 : 4 382 b/s
Count of elements                        : 631
Stream size                              : 3.47 MiB (0%)
Language                                 : Dutch
Default                                  : No
Forced                                   : No

Subtitle #9
ID                                       : 18
Format                                   : VobSub
Muxing mode                              : zlib
Codec ID                                 : S_VOBSUB
Codec ID/Info                            : Picture based subtitle format used on DVDs
Duration                                 : 1 h 50 min
Bit rate                                 : 5 152 b/s
Count of elements                        : 710
Stream size                              : 4.08 MiB (0%)
Language                                 : Finnish
Default                                  : No
Forced                                   : No

Subtitle #10
ID                                       : 19
Format                                   : VobSub
Muxing mode                              : zlib
Codec ID                                 : S_VOBSUB
Codec ID/Info                            : Picture based subtitle format used on DVDs
Duration                                 : 1 h 50 min
Bit rate                                 : 5 858 b/s
Count of elements                        : 792
Stream size                              : 4.63 MiB (0%)
Language                                 : German
Default                                  : No
Forced                                   : No

Subtitle #11
ID                                       : 20
Format                                   : VobSub
Muxing mode                              : zlib
Codec ID                                 : S_VOBSUB
Codec ID/Info                            : Picture based subtitle format used on DVDs
Duration                                 : 1 h 50 min
Bit rate                                 : 5 165 b/s
Count of elements                        : 778
Stream size                              : 4.09 MiB (0%)
Language                                 : Italian
Default                                  : No
Forced                                   : No

Subtitle #12
ID                                       : 21
Format                                   : VobSub
Muxing mode                              : zlib
Codec ID                                 : S_VOBSUB
Codec ID/Info                            : Picture based subtitle format used on DVDs
Duration                                 : 1 h 50 min
Bit rate                                 : 2 349 b/s
Count of elements                        : 640
Stream size                              : 1.86 MiB (0%)
Language                                 : Japanese
Default                                  : No
Forced                                   : No

Subtitle #13
ID                                       : 22
Format                                   : VobSub
Muxing mode                              : zlib
Codec ID                                 : S_VOBSUB
Codec ID/Info                            : Picture based subtitle format used on DVDs
Duration                                 : 1 h 32 min
Bit rate                                 : 79 b/s
Count of elements                        : 13
Stream size                              : 53.8 KiB (0%)
Language                                 : Japanese
Default                                  : No
Forced                                   : No

Subtitle #14
ID                                       : 23
Format                                   : VobSub
Muxing mode                              : zlib
Codec ID                                 : S_VOBSUB
Codec ID/Info                            : Picture based subtitle format used on DVDs
Duration                                 : 1 h 50 min
Bit rate                                 : 4 932 b/s
Count of elements                        : 780
Stream size                              : 3.90 MiB (0%)
Language                                 : Norwegian Bokmal
Default                                  : No
Forced                                   : No

Subtitle #15
ID                                       : 24
Format                                   : VobSub
Muxing mode                              : zlib
Codec ID                                 : S_VOBSUB
Codec ID/Info                            : Picture based subtitle format used on DVDs
Duration                                 : 1 h 50 min
Bit rate                                 : 4 942 b/s
Count of elements                        : 764
Stream size                              : 3.91 MiB (0%)
Language                                 : Swedish
Default                                  : No
Forced                                   : No

Subtitle #16
ID                                       : 25
Format                                   : VobSub
Muxing mode                              : zlib
Codec ID                                 : S_VOBSUB
Codec ID/Info                            : Picture based subtitle format used on DVDs
Duration                                 : 1 h 50 min
Bit rate                                 : 3 627 b/s
Count of elements                        : 786
Stream size                              : 2.87 MiB (0%)
Language                                 : Chinese
Default                                  : No
Forced                                   : No

Subtitle #17
ID                                       : 26
Format                                   : VobSub
Muxing mode                              : zlib
Codec ID                                 : S_VOBSUB
Codec ID/Info                            : Picture based subtitle format used on DVDs
Duration                                 : 1 h 50 min
Bit rate                                 : 4 593 b/s
Count of elements                        : 745
Stream size                              : 3.64 MiB (0%)
Language                                 : Czech
Default                                  : No
Forced                                   : No

Subtitle #18
ID                                       : 27
Format                                   : VobSub
Muxing mode                              : zlib
Codec ID                                 : S_VOBSUB
Codec ID/Info                            : Picture based subtitle format used on DVDs
Duration                                 : 1 h 50 min
Bit rate                                 : 3 636 b/s
Count of elements                        : 779
Stream size                              : 2.88 MiB (0%)
Language                                 : Korean
Default                                  : No
Forced                                   : No

Subtitle #19
ID                                       : 28
Format                                   : VobSub
Muxing mode                              : zlib
Codec ID                                 : S_VOBSUB
Codec ID/Info                            : Picture based subtitle format used on DVDs
Duration                                 : 1 h 50 min
Bit rate                                 : 3 158 b/s
Count of elements                        : 791
Stream size                              : 2.50 MiB (0%)
Language                                 : Chinese
Default                                  : No
Forced                                   : No

Subtitle #20
ID                                       : 29
Format                                   : VobSub
Muxing mode                              : zlib
Codec ID                                 : S_VOBSUB
Codec ID/Info                            : Picture based subtitle format used on DVDs
Duration                                 : 1 h 53 min
Bit rate                                 : 4 604 b/s
Count of elements                        : 708
Stream size                              : 3.75 MiB (0%)
Language                                 : Polish
Default                                  : No
Forced                                   : No

Subtitle #21
ID                                       : 30
Format                                   : VobSub
Muxing mode                              : zlib
Codec ID                                 : S_VOBSUB
Codec ID/Info                            : Picture based subtitle format used on DVDs
Duration                                 : 1 h 53 min
Bit rate                                 : 4 036 b/s
Count of elements                        : 786
Stream size                              : 3.29 MiB (0%)
Language                                 : Thai
Default                                  : No
Forced                                   : No

Subtitle #22
ID                                       : 31
Format                                   : VobSub
Muxing mode                              : zlib
Codec ID                                 : S_VOBSUB
Codec ID/Info                            : Picture based subtitle format used on DVDs
Duration                                 : 1 h 55 min
Bit rate                                 : 20.2 kb/s
Count of elements                        : 1919
Stream size                              : 16.7 MiB (1%)
Language                                 : English
Default                                  : No
Forced                                   : No

Subtitle #23
ID                                       : 32
Format                                   : VobSub
Muxing mode                              : zlib
Codec ID                                 : S_VOBSUB
Codec ID/Info                            : Picture based subtitle format used on DVDs
Duration                                 : 1 h 55 min
Bit rate                                 : 17.3 kb/s
Count of elements                        : 1872
Stream size                              : 14.3 MiB (1%)
Language                                 : French
Default                                  : No
Forced                                   : No

Subtitle #24
ID                                       : 33
Format                                   : VobSub
Muxing mode                              : zlib
Codec ID                                 : S_VOBSUB
Codec ID/Info                            : Picture based subtitle format used on DVDs
Duration                                 : 1 h 55 min
Bit rate                                 : 16.4 kb/s
Count of elements                        : 1862
Stream size                              : 13.5 MiB (0%)
Language                                 : Spanish
Default                                  : No
Forced                                   : No

Subtitle #25
ID                                       : 34
Format                                   : VobSub
Muxing mode                              : zlib
Codec ID                                 : S_VOBSUB
Codec ID/Info                            : Picture based subtitle format used on DVDs
Duration                                 : 1 h 55 min
Bit rate                                 : 20.2 kb/s
Count of elements                        : 1965
Stream size                              : 16.7 MiB (1%)
Language                                 : German
Default                                  : No
Forced                                   : No

Subtitle #26
ID                                       : 35
Format                                   : VobSub
Muxing mode                              : zlib
Codec ID                                 : S_VOBSUB
Codec ID/Info                            : Picture based subtitle format used on DVDs
Duration                                 : 1 h 55 min
Bit rate                                 : 17.7 kb/s
Count of elements                        : 1856
Stream size                              : 14.7 MiB (1%)
Language                                 : Italian
Default                                  : No
Forced                                   : No

Subtitle #27
ID                                       : 36
Format                                   : VobSub
Muxing mode                              : zlib
Codec ID                                 : S_VOBSUB
Codec ID/Info                            : Picture based subtitle format used on DVDs
Duration                                 : 1 h 55 min
Bit rate                                 : 10.4 kb/s
Count of elements                        : 1625
Stream size                              : 8.57 MiB (0%)
Language                                 : Japanese
Default                                  : No
Forced                                   : No

Subtitle #28
ID                                       : 37
Format                                   : VobSub
Muxing mode                              : zlib
Codec ID                                 : S_VOBSUB
Codec ID/Info                            : Picture based subtitle format used on DVDs
Duration                                 : 1 h 55 min
Bit rate                                 : 6 914 b/s
Count of elements                        : 787
Stream size                              : 5.69 MiB (0%)
Language                                 : English
Default                                  : No
Forced                                   : No

Subtitle #29
ID                                       : 38
Format                                   : VobSub
Muxing mode                              : zlib
Codec ID                                 : S_VOBSUB
Codec ID/Info                            : Picture based subtitle format used on DVDs
Duration                                 : 1 h 55 min
Bit rate                                 : 6 003 b/s
Count of elements                        : 761
Stream size                              : 4.96 MiB (0%)
Language                                 : French
Default                                  : No
Forced                                   : No

Subtitle #30
ID                                       : 39
Format                                   : VobSub
Muxing mode                              : zlib
Codec ID                                 : S_VOBSUB
Codec ID/Info                            : Picture based subtitle format used on DVDs
Duration                                 : 1 h 55 min
Bit rate                                 : 6 222 b/s
Count of elements                        : 760
Stream size                              : 5.14 MiB (0%)
Language                                 : Spanish
Default                                  : No
Forced                                   : No

Subtitle #31
ID                                       : 40
Format                                   : VobSub
Muxing mode                              : zlib
Codec ID                                 : S_VOBSUB
Codec ID/Info                            : Picture based subtitle format used on DVDs
Duration                                 : 1 h 55 min
Bit rate                                 : 7 286 b/s
Count of elements                        : 760
Stream size                              : 6.02 MiB (0%)
Language                                 : German
Default                                  : No
Forced                                   : No

Subtitle #32
ID                                       : 41
Format                                   : VobSub
Muxing mode                              : zlib
Codec ID                                 : S_VOBSUB
Codec ID/Info                            : Picture based subtitle format used on DVDs
Duration                                 : 1 h 55 min
Bit rate                                 : 6 672 b/s
Count of elements                        : 757
Stream size                              : 5.51 MiB (0%)
Language                                 : Italian
Default                                  : No
Forced                                   : No

Subtitle #33
ID                                       : 42
Format                                   : VobSub
Muxing mode                              : zlib
Codec ID                                 : S_VOBSUB
Codec ID/Info                            : Picture based subtitle format used on DVDs
Duration                                 : 1 h 55 min
Bit rate                                 : 3 852 b/s
Count of elements                        : 540
Stream size                              : 3.17 MiB (0%)
Language                                 : Japanese
Default                                  : No
Forced                                   : No

Subtitle #34
ID                                       : 43
Format                                   : UTF-8
Codec ID                                 : S_TEXT/UTF8
Codec ID/Info                            : UTF-8 Plain Text
Duration                                 : 1 h 51 min
Bit rate                                 : 46 b/s
Count of elements                        : 1064
Stream size                              : 38.3 KiB (0%)
Language                                 : Arabic
Default                                  : No
Forced                                   : No

Subtitle #35
ID                                       : 44
Format                                   : UTF-8
Codec ID                                 : S_TEXT/UTF8
Codec ID/Info                            : UTF-8 Plain Text
Duration                                 : 1 h 51 min
Bit rate                                 : 32 b/s
Count of elements                        : 811
Stream size                              : 26.9 KiB (0%)
Language                                 : Portuguese
Default                                  : No
Forced                                   : No

Subtitle #36
ID                                       : 45
Format                                   : UTF-8
Codec ID                                 : S_TEXT/UTF8
Codec ID/Info                            : UTF-8 Plain Text
Duration                                 : 1 h 50 min
Bit rate                                 : 41 b/s
Count of elements                        : 670
Stream size                              : 33.6 KiB (0%)
Language                                 : Persian
Default                                  : No
Forced                                   : No

Subtitle #37
ID                                       : 46
Format                                   : UTF-8
Codec ID                                 : S_TEXT/UTF8
Codec ID/Info                            : UTF-8 Plain Text
Duration                                 : 1 h 54 min
Bit rate                                 : 44 b/s
Count of elements                        : 758
Stream size                              : 37.3 KiB (0%)
Language                                 : Greek
Default                                  : No
Forced                                   : No

Subtitle #38
ID                                       : 47
Format                                   : UTF-8
Codec ID                                 : S_TEXT/UTF8
Codec ID/Info                            : UTF-8 Plain Text
Duration                                 : 1 h 50 min
Bit rate                                 : 34 b/s
Count of elements                        : 793
Stream size                              : 28.3 KiB (0%)
Language                                 : Hungarian
Default                                  : No
Forced                                   : No

Subtitle #39
ID                                       : 48
Format                                   : UTF-8
Codec ID                                 : S_TEXT/UTF8
Codec ID/Info                            : UTF-8 Plain Text
Duration                                 : 1 h 56 min
Bit rate                                 : 26 b/s
Count of elements                        : 677
Stream size                              : 22.3 KiB (0%)
Language                                 : Romanian
Default                                  : No
Forced                                   : No

Subtitle #40
ID                                       : 49
Format                                   : UTF-8
Codec ID                                 : S_TEXT/UTF8
Codec ID/Info                            : UTF-8 Plain Text
Duration                                 : 1 h 51 min
Bit rate                                 : 39 b/s
Count of elements                        : 719
Stream size                              : 32.3 KiB (0%)
Language                                 : Vietnamese
Default                                  : No
Forced                                   : No

Menu
00:00:00.000                             : :Chapter 1
00:01:59.119                             : :Chapter 2
00:04:38.111                             : :Chapter 3
00:07:53.848                             : :Chapter 4
00:09:08.506                             : :Chapter 5
00:12:38.424                             : :Chapter 6
00:14:14.103                             : :Chapter 7
00:20:03.910                             : :Chapter 8
00:23:20.649                             : :Chapter 9
00:25:03.251                             : :Chapter 10
00:27:48.875                             : :Chapter 11
00:31:49.824                             : :Chapter 12
00:35:30.920                             : :Chapter 13
00:37:03.179                             : :Chapter 14
00:40:31.887                             : :Chapter 15
00:43:24.518                             : :Chapter 16
00:47:26.301                             : :Chapter 17
00:50:04.125                             : :Chapter 18
00:51:42.307                             : :Chapter 19
00:54:22.675                             : :Chapter 20
00:58:59.744                             : :Chapter 21
01:00:24.870                             : :Chapter 22
01:03:34.310                             : :Chapter 23
01:08:16.717                             : :Chapter 24
01:10:02.948                             : :Chapter 25
01:12:50.407                             : :Chapter 26
01:14:31.925                             : :Chapter 27
01:17:12.711                             : :Chapter 28
01:19:00.902                             : :Chapter 29
01:22:32.280                             : :Chapter 30
01:26:37.233                             : :Chapter 31
01:28:47.571                             : :Chapter 32
01:30:46.732                             : :Chapter 33
01:32:37.760                             : :Chapter 34
01:34:21.780                             : :Chapter 35
01:37:43.148                             : :Chapter 36
01:39:12.446                             : :Chapter 37
01:43:26.241                             : :Chapter 38
01:46:15.952                             : :Chapter 39
01:53:03.609                             : :Chapter 40



Source Information
Release: Alien.1979.DC.2160p.BluRay.REMUX.HEVC.DTS-HD.MA.5.1-FGT  [52.5 GB]


Note From UTR
We have no issue with individuals posting or re-uploading our torrents on a platform we aren't on. However, if this is something you'd like to do, please do so in a 'as-is' format. We ask that you do not create a new torrent, include all descriptions you see above including the UTR logo, tags, notes and screenshots. If you'd like to become a permanent poster on a website we don't post to, feel free to get in contact with a UniTeam member.
If possible please donate: BTC 1QA5fum5AyXvWzdVCkQzUNvw3Ef15fHRaR





Category:Movies > HEVC/x265
Lang:English  English
Total Size:3.08 GB
Info Hash:4909cbd57039f67968f33dc0658e7765cd682a85
Added By:UTR
Date Added:06-05-2019 02:27:34

Files

File List: 
 File Size
Alien 1979 DC (1080p x265 q22 FS86 Joy).mkv2.66 GB
Alien 1979 DC Ridley Scott Introduction.mkv2 MB
Encoded by JoyBell (UTR).txt3.18 kB
Featurettes/Deleted Ripley Scenes.mkv9 MB
Featurettes/Fear of the Unknown - Shepperton Studios 1979.mkv65 MB
Featurettes/Future Tense - Music and Editing.mkv34 MB
Featurettes/Outward Bound - Visual Effects.mkv43 MB
Featurettes/The Beast Within - The Making of Alien.mkv49 MB
Featurettes/The Darkest Reaches - Nostromo and Alien Planet.mkv50 MB
Featurettes/The Eighth Passenger - Creature Design.mkv92 MB
Featurettes/The Visualists - Direction and Design.mkv44 MB
Featurettes/Truckers in Space - Casting.mkv34 MB
folder.jpg431.01 kB
How to play HEVC (THIS FILE).txt3.42 kB
Ninite K-Lite Codecs Unattended Silent Installer and Updater.website561.00 B



Comments

There are currently no comments. Be the first one to write something !