snowfall s03e02 big brother s21e10 rocketman 2019 toy story 4 2019 the inbetween s01e06 annabelle comes home 2019 suits s09e01 aladdin 2019 shazam 2019 2.0 (2018) big little lies s02e06 the lion king 2019 Suits  wwe Stranger things krypton hellboy 2019 ettv dc week proper pandora s01e01 krypton s02e06 big bang theory español yesterday 2019 captain marvel 2019 endgame anna 2019 xxx dumbo 2019 godzilla king of the monsters 2019 avengers endgame 2019 ddr kabir singh Shazam shaft 2019 dark phoenix 2019 midsommar 2019 John wick stuber 2019 alita battle angel 2019 John wick 3 hindi archer animal kingdom s04e08 spider man far from home 2019 evo childs play 2019 etrg the intruder 2019 big little lies us 2019 the handmaids tale s03e09 ethd alita yellowstone s02e04 The Handmaids Tale hellboy yellowstone long shot 2019 the 100 s06e10 once upon a time in hollywood 2019 The 100 men in black international 2019 brightburn 2019 john wick chapter 3 – parabellum 2019 avengers endgame pearson s01e01 DDR ma 2019 yts etmovies crawl 2019 arrow español 
Warning! Use a VPN When Downloading Torrents!
Your IP Address is 18.206.241.26. Location is United States
Your Internet Provider is tracking your torrent activity! Hide your IP ADDRESS with a VPN!
We strongly recommend using ExpressVPN to anonymize your torrenting. 30 Day Money Back Guarantee!
Try it Now!
ETTV Recommended TV Shows
Krypton.S02E06.HDTV.x264-SVA[ettv] torrent
Suits.S09E01.WEB.x264-TBS[ettv] torrent
Pearson.S01E01.WEB.x264-TBS[ettv] torrent
Pose.S02E05.REPACK.WEB.H264-MEMENTO[ettv] torrent
The.InBetween.S01E06.HDTV.x264-KILLERS[ettv] torrent
Yellowstone.2018.S02E04.WEBRip.x264-KOMPOST[ettv] torrent

ETTV Recommended SD
The.Intruder.2019.HDRip.XViD-ETRG torrent
Secret.Obsession.2019.HDRip.XviD.AC3-EVO torrent
El.Chicano.2019.DVDRip.XviD.AC3-EVO torrent
Union.Bound.2019.HDRip.XviD.AC3-EVO torrent

ETTV Recommended HD
Dark.Deadly.and.Dreadful.2019.1080p.AMZN.WEB-Rip.DDP2.0.HEVC-DDR[EtHD] torrent
Secret.Obsession.2019.MULTI.1080p.WEB.Rip.DDP.5.1.HEVC-DDR[EtHD] torrent
Fast.Color.2018.BluRay.1080p.DTS-HD.MA.5.1.HEVC-DDR[EtHD] torrent
Union.Bound.2019.1080p.AMZN.WEB-DL.DDP2.0.H264-CMRG[EtHD] torrent

ETTV Recommended UHD
Shazam! 2019.Multi.UHD.BluRay.2160p.HDR.HEVC.Atmos.7.1[En+Hindi++]-DDR torrent
Alita Battle Angel 2019.MULTi.UHD.BluRay.2160p.HDR.Atmos.7.1.HEVC[EN+Hindi++]-DDR.mkv torrent
Hellboy 2019.MULTi.UHD.BluRay.2160p.HDR.Atmos.7.1.HEVC-DDR torrent
Breakthrough 2019.MULTi.UHD.BluRay.2160p.HEVC.DTS-HD.MA7.1.[En+Hindi+Fr+Sp+Ur+Tur]-DDR torrent

ETTV Recommended Cam
Crawl 2019 720p HDCAM-1XBET torrent
Stuber 2019 720p HDCAM-1XBET torrent
Spider-Man Far From Home 2019 HD-TC x264 AC3-ETRG torrent
The Lion King 2019 720p HDCAM-1XBET torrent

ETTV Recommended Foreign
Alita:Battle.Angel.(2019).[1080p].[Dual.Audio].[Org.BD].{Hindi+Eng.6Ch}.-~{DOOMSDAY}~-. torrent
Hum Hain Rahi Pyar Ke.1993.1080p.WEB-DL.AVC.AAC.DDR torrent
The.Dark.Knight.(2008).[IMAX.1080p].[Dual.Audio].[Org.DD].{Hindi.2.0+Eng.6Ch}.-~{DOOMSDAY}~-. torrent
The.Beast.2019.HDRip.720p-Mkvking torrent


Download Torrent "Game of Thrones S08E04 (1080p AMZN WEB-DL NVENC HEVC 10bit AAC 5.1 Q22 Joy)..."

IMDB Details
Description:

N/A

Genre:

N/A

Download Torrent (Magnet)
Download Torrent (File)
Seeds: 4,329
Leechers: 1,457
Completed: 18,461 
Last Checked: 06-05-2019 06:02:39


Loading...
Details
Title:Game of Thrones S08E04 (1080p AMZN WEB-DL NVENC HEVC 10bit AAC 5.1 Q22 Joy)...
Description:


Media Information
General
Format                                   : Matroska
Format version                           : Version 4 / Version 2
File size                                : 907 MiB
Duration                                 : 1 h 18 min
Overall bit rate                         : 1 608 kb/s
Movie name                               : Game of Thrones S08E04 The Last of the Starks  (1080p NV q22 Joy)[UTR]
Encoded date                             : UTC 2019-05-06 04:07:57
Writing application                      : mkvmerge v31.0.0 ('Dolores In A Shoestand') 64-bit
Writing library                          : libebml v1.3.6 + libmatroska v1.4.9
Writing frontend                         : StaxRip v2.0.0.1, a JoyBell Encode

Video
ID                                       : 1
Format                                   : HEVC
Format/Info                              : High Efficiency Video Coding
Format profile                           : Main [email protected]@Main
Codec ID                                 : V_MPEGH/ISO/HEVC
Duration                                 : 1 h 18 min
Bit rate                                 : 1 406 kb/s
Width                                    : 1 920 pixels
Height                                   : 1 080 pixels
Display aspect ratio                     : 16:9
Frame rate mode                          : Constant
Frame rate                               : 23.976 (24000/1001) FPS
Color space                              : YUV
Chroma subsampling                       : 4:2:0
Bit depth                                : 10 bits
Bits/(Pixel*Frame)                       : 0.028
Stream size                              : 793 MiB (87%)
Default                                  : Yes
Forced                                   : No
Color range                              : Limited
Matrix coefficients                      : BT.709

Audio
ID                                       : 2
Format                                   : AAC
Format/Info                              : Advanced Audio Codec
Format profile                           : HE-AAC / LC
Codec ID                                 : A_AAC
Duration                                 : 1 h 18 min
Bit rate                                 : 200 kb/s
Channel(s)                               : 6 channels
Channel positions                        : Front: L C R, Side: L R, LFE
Sampling rate                            : 48.0 kHz / 24.0 kHz
Frame rate                               : 23.438 FPS (1024 spf)
Compression mode                         : Lossy
Delay relative to video                  : 31 ms
Stream size                              : 113 MiB (12%)
Language                                 : English
Default                                  : No
Forced                                   : No

Subtitle #1
ID                                       : 3
Format                                   : UTF-8
Codec ID                                 : S_TEXT/UTF8
Codec ID/Info                            : UTF-8 Plain Text
Duration                                 : 1 h 18 min
Bit rate                                 : 45 b/s
Count of elements                        : 872
Stream size                              : 26.4 KiB (0%)
Language                                 : English
Default                                  : No
Forced                                   : No

Subtitle #2
ID                                       : 4
Format                                   : UTF-8
Codec ID                                 : S_TEXT/UTF8
Codec ID/Info                            : UTF-8 Plain Text
Duration                                 : 1 h 18 min
Bit rate                                 : 48 b/s
Count of elements                        : 982
Stream size                              : 28.1 KiB (0%)
Title                                    : SDH
Language                                 : English
Default                                  : No
Forced                                   : No

Menu
00:00:00.000                             : en:Ratings
00:00:02.926                             : en:Previously On
00:01:12.926                             : en:Opening Credits
00:03:06.926                             : en:The shields that guarded the realms of men
00:08:52.926                             : en:A feast to celebrate
00:12:11.926                             : en:A person that men will want to follow
00:17:50.926                             : en:Celebrations and confessions
00:22:23.926                             : en:The Lady of Storm's End
00:24:22.926                             : en:Follow the drinking game rules
00:27:24.926                             : en:Swearing to secrecy
00:31:55.926                             : en:A plan of action
00:36:05.926                             : en:The importance of family
00:38:26.926                             : en:The word of a Lannister
00:42:38.926                             : en:Unfinished business in King's Landing
00:43:58.926                             : en:The North and King's Landing must be allies
00:47:17.926                             : en:A friend's farewell
00:50:42.926                             : en:A secret can quickly spread
00:52:57.926                             : en:The unthinkable happens
00:55:52.926                             : en:So much for the breaker of chains
00:57:57.926                             : en:Tyrants or Queens
01:04:03.926                             : en:What it means to be a good man
01:07:52.926                             : en:An opportunity to surrender
01:16:54.926                             : en:End Credits
01:18:13.926                             : en:Next Time



Source Information
Release: Game.of.Thrones.S08E04.1080p.AMZN.WEB-DL.DDP5.1.H.264-GoT.mkv (3.99 GBs)


Note From UTR
We have no issue with individuals posting or re-uploading our torrents on a platform we aren't on. However, if this is something you'd like to do, please do so in a 'as-is' format. We ask that you do not create a new torrent, include all descriptions you see above including the UTR logo, tags, notes and screenshots. If you'd like to become a permanent poster on a website we don't post to, feel free to get in contact with a UniTeam member.
If possible please donate: BTC 1QA5fum5AyXvWzdVCkQzUNvw3Ef15fHRaR




Category:TV > HEVC/x265
Lang:English  English
Total Size:907 MB
Info Hash:79bce54f53b0d5939d5069c9724a2707248c9924
Added By:UTR
Date Added:06-05-2019 06:02:37

Files

File List: 
 File Size
Game of Thrones S08E04 The Last of the Starks (1080p NV q22 Joy).mkv907 MB



Loading...
Comments

There are currently no comments. Be the first one to write something !