john wick 幼女 godzilla king of the monsters 2019 men in black the hustle 2019 fast furious presents hobbs shaw 2019 xxx once upon a time in hollywood 2019 long shot 2019 Fear the Walking Dead ddr dora and the lost city of gold 2019 avengers endgame avengers endgame 2019 john wick chapter 3 – parabellum 2019 angel has fallen 2019 annabelle comes home 2019 ready or not 2019 queen of the south the lion king 2019 scary stories to tell in the dark 2019 midsommar 2019 47 meters down uncaged 2019 Killjoys  toy story 4 2019 brightburn 2019 arrow español dark phoenix 2019 0 Dark Phoenix ETTV 2.0 (2018) the secret life of pets 2 2019 ma 2019 aladdin Mindhunter hindi suits spider man far from home 2019 aladdin 2019 etrg John wick 3 men in black international pennyworth preacher shazam 2019 queen of the south s04e12 Article 15 the kitchen 2019 snowfall s03e07 peaky blinders hellboy 2019 sextuplets 2019 etmovies 13 reasons why good boys 2019 motogp angel has fallen yts crawl 2019 the angry birds movie 2 2019 yellowstone s02e09 kabir singh evo the boys power s06e01 anna 2019 ethd men in black international 2019 power night hunter 2019 
Warning! Use a VPN When Downloading Torrents!
Your IP Address is 3.81.28.94. Location is United States
Your Internet Provider is tracking your torrent activity! Hide your IP ADDRESS with a VPN!
We strongly recommend using ExpressVPN to anonymize your torrenting. 30 Day Money Back Guarantee!
Try it Now!
ETTV Recommended TV Shows
Pennyworth.S01E06.Cilla.Black.720p.AMZN.WEB-DL.DDP5.1.H.264-NTG[ettv] torrent
Peaky.Blinders.S05E01.HDTV.x264-BRISK[ettv] torrent
Poldark.2015.S05E07.HDTV.x264-LiNKLE[ettv] torrent
Instinct.US.S02E11.HDTV.x264-LucidTV[ettv] torrent

ETTV Recommended SD
Status Pending.2019.HDRip.XviD.AC3-EVO[EtMovies] torrent
Sweet Inspirations.2019.HDRip.XviD.AC3-EVO[EtMovies] torrent
Aladdin.2019.BRRip.XViD.AC3-ETRG torrent
Woodstock.Or.Bust.2019.HDRip.XviD.AC3-EVO[EtMovies] torrent

ETTV Recommended HD
John.Wick.Chapter.3.Parabellum.2019.1080p.AMZN.WEB-DL.DDP5.1.H.264-NTG[EtHD] torrent
Men in Black International 2019.MULTi.BluRay.1080p.ATMOS.7.1.HEVC-DDR[EtHD] torrent
Fanatic.2019.1080p.NF.WEB-DL.H264-ETRG[EtHD] torrent
Aladdin 2019.MULTi.BluRay.1080p.DTS-HDMA.7.1.HEVC-DDR[EtHD] torrent

ETTV Recommended UHD
The.Hustle.2019.2160p.WEBRip.SDR.DTS-HD.MA.7.1HEVC-DDR[EtHD] torrent
Men in Black International 2019.MULTi.UHD.BluRay.2160p.Atmos.7.1.HEVC-DDR torrent
The Fog.1980.4K.HDR.2160p.BDRip Ita Eng x265-NAHOM torrent
Apocalypse Now 1979.Final.Cut.UHD.Blu-ray.2160p.HDR.ATMOS.7.1.HEVC-DDR torrent

ETTV Recommended Cam
Good Boys 2019 HDCAM x264 AC3-ETRG torrent
Crawl 2019 NEW HDCAM x264 AC3-ETRG torrent
Angel Has Fallen 2019 HDCAM x264 AC3-ETRG torrent
The Lion King 2019 NEW HDCAM x264 AC3-ETRG torrent

ETTV Recommended Foreign
Xenophobia (2019) 720P WEB-DL [Hindi-Dub] x264 - KatmovieHD torrent
I Soliti Idioti 1-2 (2011-2012), [H264 - Ita Ac3 5.1 - Sub Ita Eng][TNTVillage] by SnakeSPL79 torrent
G Affairs 2018 CHN.BluRay 1080p TrueHD 5.1.HEVC-DDR[EtHD] torrent
Student of the Year 2 2019.1080p.AMZN.WEB-Rip.DDP5.1.HEVC-DDR[EtHD] torrent


Download Torrent "House, M.D (2004) Season 03 S03 (1080p BluRay x265 HEVC 10bit AAC 5.1 Joy) ..."

IMDB Details
Description:

N/A

Genre:

N/A

Download Torrent (Magnet)
Download Torrent (File)
Seeds: 64
Leechers: 92
Completed: 2,291 
Last Checked: 06-05-2019 06:17:46


Loading...
Details
Title:House, M.D (2004) Season 03 S03 (1080p BluRay x265 HEVC 10bit AAC 5.1 Joy) ...
Description:








Media Information
General
Format                                   : Matroska
Format version                           : Version 4 / Version 2
File size                                : 524 MiB
Duration                                 : 44 min 0 s
Overall bit rate                         : 1 665 kb/s
Movie name                               : House, M.D. S03E24 Human Error  (1080p x265 10bit Joy)
Encoded date                             : UTC 2019-04-27 02:31:23
Writing application                      : mkvmerge v24.0.0 ('Beyond The Pale') 64-bit
Writing library                          : libebml v1.3.6 + libmatroska v1.4.9
Writing frontend                         : StaxRip v1.8.2.0, a JoyBell Encode

Video
ID                                       : 1
Format                                   : HEVC
Format/Info                              : High Efficiency Video Coding
Format profile                           : Main [email protected]@Main
Codec ID                                 : V_MPEGH/ISO/HEVC
Duration                                 : 44 min 0 s
Bit rate                                 : 1 433 kb/s
Width                                    : 1 920 pixels
Height                                   : 1 080 pixels
Display aspect ratio                     : 16:9
Frame rate mode                          : Constant
Frame rate                               : 23.976 (24000/1001) FPS
Color space                              : YUV
Chroma subsampling                       : 4:2:0
Bit depth                                : 10 bits
Bits/(Pixel*Frame)                       : 0.029
Stream size                              : 451 MiB (86%)
Writing library                          : x265 3.0_Au+14-c7e5878bdd31:[Windows][MSVC 1916][64 bit] 10bit
Encoding settings                        : cpuid=1111039 / frame-threads=3 / numa-pools=8 / wpp / no-pmode / no-pme / no-psnr / ssim / log-level=2 / input-csp=1 / input-res=1920x1080 / interlace=0 / total-frames=63313 / level-idc=0 / high-tier=1 / uhd-bd=0 / ref=4 / no-allow-non-conformance / no-repeat-headers / annexb / no-aud / no-hrd / info / hash=0 / no-temporal-layers / open-gop / min-keyint=23 / keyint=250 / gop-lookahead=0 / bframes=8 / b-adapt=2 / b-pyramid / bframe-bias=40 / rc-lookahead=80 / lookahead-slices=4 / scenecut=40 / radl=0 / no-splice / no-intra-refresh / ctu=64 / min-cu-size=8 / no-rect / no-amp / max-tu-size=32 / tu-inter-depth=1 / tu-intra-depth=1 / limit-tu=0 / rdoq-level=2 / dynamic-rd=0.00 / ssim-rd / signhide / no-tskip / nr-intra=0 / nr-inter=0 / no-constrained-intra / strong-intra-smoothing / max-merge=3 / limit-refs=3 / limit-modes / me=3 / subme=3 / merange=57 / temporal-mvp / weightp / no-weightb / no-analyze-src-pics / deblock=0:0 / sao / no-sao-non-deblock / rd=4 / early-skip / rskip / no-fast-intra / no-tskip-fast / no-cu-lossless / no-b-intra / splitrd-skip / rdpenalty=0 / psy-rd=0.00 / psy-rdoq=1.50 / no-rd-refine / no-lossless / cbqpoffs=0 / crqpoffs=0 / rc=abr / bitrate=1200 / qcomp=0.60 / qpstep=4 / stats-write=0 / stats-read=2 / cplxblur=20.0 / qblur=0.5 / ipratio=1.40 / pbratio=1.30 / aq-mode=3 / aq-strength=0.80 / cutree / zone-count=0 / no-strict-cbr / qg-size=32 / no-rc-grain / qpmax=69 / qpmin=0 / no-const-vbv / sar=0 / overscan=0 / videoformat=5 / range=0 / colorprim=2 / transfer=2 / colormatrix=2 / chromaloc=0 / display-window=0 / max-cll=0,0 / min-luma=0 / max-luma=1023 / log2-max-poc-lsb=8 / vui-timing-info / vui-hrd-info / slices=1 / no-opt-qp-pps / no-opt-ref-list-length-pps / multi-pass-opt-rps / scenecut-bias=0.05 / no-opt-cu-delta-qp / no-aq-motion / no-hdr / no-hdr-opt / no-dhdr10-opt / no-idr-recovery-sei / analysis-reuse-level=10 / scale-factor=0 / refine-intra=0 / refine-inter=0 / refine-mv=0 / refine-ctu-distortion=0 / limit-sao / ctu-info=0 / no-lowpass-dct / refine-analysis-type=0 / copy-pic=1 / max-ausize-factor=1.0 / no-dynamic-refine / no-single-sei / no-hevc-aq / no-svt / qp-adaptation-range=1.00
Default                                  : Yes
Forced                                   : No

Audio
ID                                       : 2
Format                                   : AAC
Format/Info                              : Advanced Audio Codec
Format profile                           : HE-AAC / LC
Codec ID                                 : A_AAC
Duration                                 : 44 min 0 s
Bit rate                                 : 182 kb/s
Channel(s)                               : 6 channels
Channel positions                        : Front: L C R, Side: L R, LFE
Sampling rate                            : 48.0 kHz / 24.0 kHz
Frame rate                               : 23.438 FPS (1024 spf)
Compression mode                         : Lossy
Delay relative to video                  : 31 ms
Stream size                              : 57.3 MiB (11%)
Language                                 : English
Default                                  : No
Forced                                   : No

Subtitle #1
ID                                       : 3
Format                                   : VobSub
Muxing mode                              : zlib
Codec ID                                 : S_VOBSUB
Codec ID/Info                            : Picture based subtitle format used on DVDs
Duration                                 : 41 min 32 s
Bit rate                                 : 14.2 kb/s
Count of elements                        : 713
Stream size                              : 4.22 MiB (1%)
Language                                 : English
Default                                  : No
Forced                                   : No

Subtitle #2
ID                                       : 4
Format                                   : VobSub
Muxing mode                              : zlib
Codec ID                                 : S_VOBSUB
Codec ID/Info                            : Picture based subtitle format used on DVDs
Duration                                 : 41 min 26 s
Bit rate                                 : 8 364 b/s
Count of elements                        : 570
Stream size                              : 2.48 MiB (0%)
Language                                 : Japanese
Default                                  : No
Forced                                   : No

Subtitle #3
ID                                       : 5
Format                                   : VobSub
Muxing mode                              : zlib
Codec ID                                 : S_VOBSUB
Codec ID/Info                            : Picture based subtitle format used on DVDs
Duration                                 : 41 min 27 s
Bit rate                                 : 10.9 kb/s
Count of elements                        : 524
Stream size                              : 3.23 MiB (1%)
Language                                 : French
Default                                  : No
Forced                                   : No

Subtitle #4
ID                                       : 6
Format                                   : VobSub
Muxing mode                              : zlib
Codec ID                                 : S_VOBSUB
Codec ID/Info                            : Picture based subtitle format used on DVDs
Duration                                 : 41 min 27 s
Bit rate                                 : 13.9 kb/s
Count of elements                        : 503
Stream size                              : 4.11 MiB (1%)
Language                                 : German
Default                                  : No
Forced                                   : No

Subtitle #5
ID                                       : 7
Format                                   : VobSub
Muxing mode                              : zlib
Codec ID                                 : S_VOBSUB
Codec ID/Info                            : Picture based subtitle format used on DVDs
Duration                                 : 41 min 26 s
Bit rate                                 : 9 312 b/s
Count of elements                        : 415
Stream size                              : 2.76 MiB (1%)
Language                                 : Spanish
Default                                  : No
Forced                                   : No

Subtitle #6
ID                                       : 8
Format                                   : VobSub
Muxing mode                              : zlib
Codec ID                                 : S_VOBSUB
Codec ID/Info                            : Picture based subtitle format used on DVDs
Duration                                 : 41 min 27 s
Bit rate                                 : 11.8 kb/s
Count of elements                        : 595
Stream size                              : 3.49 MiB (1%)
Language                                 : Portuguese
Default                                  : No
Forced                                   : No

Subtitle #7
ID                                       : 9
Format                                   : VobSub
Muxing mode                              : zlib
Codec ID                                 : S_VOBSUB
Codec ID/Info                            : Picture based subtitle format used on DVDs
Duration                                 : 41 min 28 s
Bit rate                                 : 10.2 kb/s
Count of elements                        : 404
Stream size                              : 3.03 MiB (1%)
Language                                 : Dutch
Default                                  : No
Forced                                   : No

Menu
00:00:00.000                             : en: Chapter 1 Chapter 1
00:03:22.786                             : en: Chapter 2 Chapter 2
00:12:11.064                             : en: Chapter 3 Chapter 3
00:21:52.102                             : en: Chapter 4 Chapter 4
00:32:30.615                             : en: Chapter 5 Chapter 5
00:43:18.638                             : en: Chapter 6 Chapter 6



Source Information
Release: House.S04.1080p.BluRay.REMUX.AVC.DTS-EPSiLON  [119 GB]


Note From UTR
We have no issue with individuals posting or re-uploading our torrents on a platform we aren't on. However, if this is something you'd like to do, please do so in a 'as-is' format. We ask that you do not create a new torrent, include all descriptions you see above including the UTR logo, tags, notes and screenshots. If you'd like to become a permanent poster on a website we don't post to, feel free to get in contact with a UniTeam member.
If possible please donate: BTC 1QA5fum5AyXvWzdVCkQzUNvw3Ef15fHRaR




Category:TV > HEVC/x265
Lang:English  English
Total Size:10.84 GB
Info Hash:b24c3367366e7760da9dc2662cd8d8a35cf0a9ab
Added By:UTR
Date Added:06-05-2019 06:17:42

Files

File List: 
 File Size
Encoded by JoyBell (UTR).txt3.17 kB
Featurettes/House, M.D. S03Extra Alternate Take from 'Cane and Able' - The Angry Valley Girl Version.mkv2 MB
Featurettes/House, M.D. S03Extra Anatomy of an Episode - 'The Jerk'.mkv47 MB
Featurettes/House, M.D. S03Extra Blood, Needles and Body Parts - The House Prop Department.mkv10 MB
Featurettes/House, M.D. S03Extra Blooper Reel.mkv9 MB
Featurettes/House, M.D. S03Extra House Soundtrack Session with 'Band From TV'.mkv18 MB
Featurettes/House, M.D. S03Extra Open House - The Production Office.mkv10 MB
folder.jpg16.06 kB
House, M.D. S03E01 Meaning (1080p x265 10bit Joy).mkv449 MB
House, M.D. S03E02 Cane and Able (1080p x265 10bit Joy).mkv452 MB
House, M.D. S03E03 Informed Consent (1080p x265 10bit Joy).mkv448 MB
House, M.D. S03E04 Lines in the Sand (1080p x265 10bit Joy).mkv454 MB
House, M.D. S03E05 Fools for Love (1080p x265 10bit Joy).mkv456 MB
House, M.D. S03E06 Que Será Será (1080p x265 10bit Joy).mkv449 MB
House, M.D. S03E07 Son of Coma Guy (1080p x265 10bit Joy).mkv453 MB
House, M.D. S03E08 Whac-A-Mole (1080p x265 10bit Joy).mkv456 MB
House, M.D. S03E09 Finding Judas (1080p x265 10bit Joy).mkv452 MB
House, M.D. S03E10 Merry Little Christmas (1080p x265 10bit Joy).mkv453 MB
House, M.D. S03E11 Words and Deeds (1080p x265 10bit Joy).mkv454 MB
House, M.D. S03E12 One Day, One Room (1080p x265 10bit Joy).mkv442 MB
House, M.D. S03E13 Needle in a Haystack (1080p x265 10bit Joy).mkv451 MB
House, M.D. S03E14 Insensitive (1080p x265 10bit Joy).mkv457 MB
House, M.D. S03E15 Half-Wit (1080p x265 10bit Joy).mkv419 MB
House, M.D. S03E16 Top Secret (1080p x265 10bit Joy).mkv463 MB
House, M.D. S03E17 Fetal Position (1080p x265 10bit Joy).mkv455 MB
House, M.D. S03E18 Airborne (1080p x265 10bit Joy).mkv452 MB
House, M.D. S03E19 Act Your Age (1080p x265 10bit Joy).mkv453 MB
House, M.D. S03E20 House Training (1080p x265 10bit Joy).mkv452 MB
House, M.D. S03E21 Family (1080p x265 10bit Joy).mkv495 MB
House, M.D. S03E22 Resignation (1080p x265 10bit Joy).mkv449 MB
House, M.D. S03E23 The Jerk (1080p x265 10bit Joy).mkv518 MB
House, M.D. S03E24 Human Error (1080p x265 10bit Joy).mkv524 MB
How to play HEVC (THIS FILE).txt3.42 kB
Ninite K-Lite Codecs Unattended Silent Installer and Updater.website561.00 B



Loading...
Comments

There are currently no comments. Be the first one to write something !