john wick 幼女 godzilla king of the monsters 2019 men in black the hustle 2019 fast furious presents hobbs shaw 2019 xxx once upon a time in hollywood 2019 long shot 2019 Fear the Walking Dead ddr dora and the lost city of gold 2019 avengers endgame avengers endgame 2019 john wick chapter 3 – parabellum 2019 angel has fallen 2019 annabelle comes home 2019 ready or not 2019 queen of the south the lion king 2019 scary stories to tell in the dark 2019 midsommar 2019 47 meters down uncaged 2019 Killjoys  toy story 4 2019 brightburn 2019 arrow español dark phoenix 2019 0 Dark Phoenix ETTV 2.0 (2018) the secret life of pets 2 2019 ma 2019 aladdin Mindhunter hindi suits spider man far from home 2019 aladdin 2019 etrg John wick 3 men in black international pennyworth preacher shazam 2019 queen of the south s04e12 Article 15 the kitchen 2019 snowfall s03e07 peaky blinders hellboy 2019 sextuplets 2019 etmovies 13 reasons why good boys 2019 motogp angel has fallen yts crawl 2019 the angry birds movie 2 2019 yellowstone s02e09 kabir singh evo the boys power s06e01 anna 2019 ethd men in black international 2019 power night hunter 2019 
Warning! Use a VPN When Downloading Torrents!
Your IP Address is 3.81.28.94. Location is United States
Your Internet Provider is tracking your torrent activity! Hide your IP ADDRESS with a VPN!
We strongly recommend using ExpressVPN to anonymize your torrenting. 30 Day Money Back Guarantee!
Try it Now!
ETTV Recommended TV Shows
Pennyworth.S01E06.Cilla.Black.720p.AMZN.WEB-DL.DDP5.1.H.264-NTG[ettv] torrent
Peaky.Blinders.S05E01.HDTV.x264-BRISK[ettv] torrent
Poldark.2015.S05E07.HDTV.x264-LiNKLE[ettv] torrent
Instinct.US.S02E11.HDTV.x264-LucidTV[ettv] torrent

ETTV Recommended SD
Status Pending.2019.HDRip.XviD.AC3-EVO[EtMovies] torrent
Sweet Inspirations.2019.HDRip.XviD.AC3-EVO[EtMovies] torrent
Aladdin.2019.BRRip.XViD.AC3-ETRG torrent
Woodstock.Or.Bust.2019.HDRip.XviD.AC3-EVO[EtMovies] torrent

ETTV Recommended HD
John.Wick.Chapter.3.Parabellum.2019.1080p.AMZN.WEB-DL.DDP5.1.H.264-NTG[EtHD] torrent
Men in Black International 2019.MULTi.BluRay.1080p.ATMOS.7.1.HEVC-DDR[EtHD] torrent
Fanatic.2019.1080p.NF.WEB-DL.H264-ETRG[EtHD] torrent
Aladdin 2019.MULTi.BluRay.1080p.DTS-HDMA.7.1.HEVC-DDR[EtHD] torrent

ETTV Recommended UHD
The.Hustle.2019.2160p.WEBRip.SDR.DTS-HD.MA.7.1HEVC-DDR[EtHD] torrent
Men in Black International 2019.MULTi.UHD.BluRay.2160p.Atmos.7.1.HEVC-DDR torrent
The Fog.1980.4K.HDR.2160p.BDRip Ita Eng x265-NAHOM torrent
Apocalypse Now 1979.Final.Cut.UHD.Blu-ray.2160p.HDR.ATMOS.7.1.HEVC-DDR torrent

ETTV Recommended Cam
Good Boys 2019 HDCAM x264 AC3-ETRG torrent
Crawl 2019 NEW HDCAM x264 AC3-ETRG torrent
Angel Has Fallen 2019 HDCAM x264 AC3-ETRG torrent
The Lion King 2019 NEW HDCAM x264 AC3-ETRG torrent

ETTV Recommended Foreign
Xenophobia (2019) 720P WEB-DL [Hindi-Dub] x264 - KatmovieHD torrent
I Soliti Idioti 1-2 (2011-2012), [H264 - Ita Ac3 5.1 - Sub Ita Eng][TNTVillage] by SnakeSPL79 torrent
G Affairs 2018 CHN.BluRay 1080p TrueHD 5.1.HEVC-DDR[EtHD] torrent
Student of the Year 2 2019.1080p.AMZN.WEB-Rip.DDP5.1.HEVC-DDR[EtHD] torrent


Download Torrent "Game of Thrones S08E04 (1080p AMZN WEB-DL x265 HEVC 10bit AC3 5.1 Qman) [UT..."

IMDB Details
Description:

N/A

Genre:

N/A

Download Torrent (Magnet)
Download Torrent (File)
Seeds: 1,013
Leechers: 202
Completed: 4,387 
Last Checked: 06-05-2019 13:43:24


Loading...
Details
Title:Game of Thrones S08E04 (1080p AMZN WEB-DL x265 HEVC 10bit AC3 5.1 Qman) [UT...
Description:


Media Information
General
Format                                   : Matroska
Format version                           : Version 4 / Version 2
File size                                : 1.29 GiB
Duration                                 : 1 h 18 min
Overall bit rate                         : 2 340 kb/s
Encoded date                             : UTC 2019-05-06 09:03:58
Writing application                      : mkvmerge v30.1.0 ('Forever And More') 64-bit
Writing library                          : libebml v1.3.6 + libmatroska v1.4.9

Video
ID                                       : 1
Format                                   : HEVC
Format/Info                              : High Efficiency Video Coding
Format profile                           : Main [email protected]@Main
Codec ID                                 : V_MPEGH/ISO/HEVC
Duration                                 : 1 h 18 min
Bit rate                                 : 1 698 kb/s
Width                                    : 1 920 pixels
Height                                   : 1 080 pixels
Display aspect ratio                     : 16:9
Frame rate mode                          : Constant
Frame rate                               : 23.976 (24000/1001) FPS
Color space                              : YUV
Chroma subsampling                       : 4:2:0
Bit depth                                : 10 bits
Bits/(Pixel*Frame)                       : 0.034
Stream size                              : 958 MiB (73%)
Writing library                          : x265 3.0_Au+22-feec4bdf9866:[Windows][GCC 8.3.0][64 bit] 10bit
Encoding settings                        : cpuid=1111039 / frame-threads=4 / numa-pools=16 / wpp / no-pmode / no-pme / no-psnr / no-ssim / log-level=2 / input-csp=1 / input-res=1920x1080 / interlace=0 / total-frames=113472 / level-idc=0 / high-tier=1 / uhd-bd=0 / ref=4 / no-allow-non-conformance / no-repeat-headers / annexb / no-aud / no-hrd / info / hash=0 / no-temporal-layers / open-gop / min-keyint=23 / keyint=250 / gop-lookahead=0 / bframes=8 / b-adapt=2 / b-pyramid / bframe-bias=0 / rc-lookahead=50 / lookahead-slices=4 / scenecut=40 / radl=0 / no-splice / no-intra-refresh / ctu=64 / min-cu-size=8 / no-rect / no-amp / max-tu-size=32 / tu-inter-depth=1 / tu-intra-depth=1 / limit-tu=0 / rdoq-level=2 / dynamic-rd=0.00 / no-ssim-rd / signhide / no-tskip / nr-intra=0 / nr-inter=0 / no-constrained-intra / no-strong-intra-smoothing / max-merge=3 / limit-refs=3 / limit-modes / me=3 / subme=3 / merange=57 / temporal-mvp / weightp / no-weightb / no-analyze-src-pics / deblock=1:1 / no-sao / no-sao-non-deblock / rd=4 / no-early-skip / no-rskip / no-fast-intra / no-tskip-fast / no-cu-lossless / no-b-intra / no-splitrd-skip / rdpenalty=0 / psy-rd=1.40 / psy-rdoq=1.00 / no-rd-refine / no-lossless / cbqpoffs=0 / crqpoffs=0 / rc=crf / crf=21.0 / qcomp=0.60 / qpstep=4 / stats-write=0 / stats-read=0 / ipratio=1.40 / pbratio=1.30 / aq-mode=2 / aq-strength=1.00 / cutree / zone-count=0 / no-strict-cbr / qg-size=32 / no-rc-grain / qpmax=69 / qpmin=0 / no-const-vbv / sar=0 / overscan=0 / videoformat=5 / range=0 / colorprim=2 / transfer=2 / colormatrix=2 / chromaloc=0 / display-window=0 / max-cll=0,0 / min-luma=0 / max-luma=1023 / log2-max-poc-lsb=8 / vui-timing-info / vui-hrd-info / slices=1 / no-opt-qp-pps / no-opt-ref-list-length-pps / no-multi-pass-opt-rps / scenecut-bias=0.05 / no-opt-cu-delta-qp / no-aq-motion / no-hdr / no-hdr-opt / no-dhdr10-opt / no-idr-recovery-sei / analysis-reuse-level=5 / scale-factor=0 / refine-intra=0 / refine-inter=0 / refine-mv=0 / refine-ctu-distortion=0 / no-limit-sao / ctu-info=0 / no-lowpass-dct / refine-analysis-type=0 / copy-pic=1 / max-ausize-factor=1.0 / no-dynamic-refine / no-single-sei / no-hevc-aq / no-svt / qp-adaptation-range=1.00
Language                                 : English
Default                                  : Yes
Forced                                   : No

Audio
ID                                       : 2
Format                                   : E-AC-3
Format/Info                              : Enhanced Audio Coding 3
Format settings, Endianness              : Big
Codec ID                                 : A_EAC3
Duration                                 : 1 h 18 min
Bit rate mode                            : Constant
Bit rate                                 : 640 kb/s
Channel(s)                               : 6 channels
Channel positions                        : Front: L C R, Side: L R, LFE
Sampling rate                            : 48.0 kHz
Frame rate                               : 187.500 FPS (256 spf)
Compression mode                         : Lossy
Delay relative to video                  : 6 ms
Stream size                              : 361 MiB (27%)
Language                                 : English
Default                                  : Yes
Forced                                   : No

Subtitle
ID                                       : 3
Format                                   : UTF-8
Codec ID                                 : S_TEXT/UTF8
Codec ID/Info                            : UTF-8 Plain Text
Duration                                 : 1 h 18 min
Bit rate                                 : 45 b/s
Count of elements                        : 872
Stream size                              : 26.4 KiB (0%)
Language                                 : English
Default                                  : Yes
Forced                                   : No

Menu
00:00:00.000                             : en:Ratings
00:00:02.926                             : en:Previously On
00:01:12.926                             : en:Opening Credits
00:03:06.926                             : en:The shields that guarded the realms of men
00:08:52.926                             : en:A feast to celebrate
00:12:11.926                             : en:A person that men will want to follow
00:17:50.926                             : en:Celebrations and confessions
00:22:23.926                             : en:The Lady of Storm's End
00:24:22.926                             : en:Follow the drinking game rules
00:27:24.926                             : en:Swearing to secrecy
00:31:55.926                             : en:A plan of action
00:36:05.926                             : en:The importance of family
00:38:26.926                             : en:The word of a Lannister
00:42:38.926                             : en:Unfinished business in King's Landing
00:43:58.926                             : en:The North and King's Landing must be allies
00:47:17.926                             : en:A friend's farewell
00:50:42.926                             : en:A secret can quickly spread
00:52:57.926                             : en:The unthinkable happens
00:55:52.926                             : en:So much for the breaker of chains
00:57:57.926                             : en:Tyrants or Queens
01:04:03.926                             : en:What it means to be a good man
01:07:52.926                             : en:An opportunity to surrender
01:16:54.926                             : en:End Credits
01:18:13.926                             : en:Next Time



Source Information
Release: Game.of.Thrones.S08E04.1080p.AMZN.WEB-DL.DDP5.1.H.264-GoT


Note From UTR
We have no issue with individuals posting or re-uploading our torrents on a platform we aren't on. However, if this is something you'd like to do, please do so in a 'as-is' format. We ask that you do not create a new torrent, include all descriptions you see above including the UTR logo, tags, notes and screenshots. If you'd like to become a permanent poster on a website we don't post to, feel free to get in contact with a UniTeam member.
If possible please donate: BTC 1QA5fum5AyXvWzdVCkQzUNvw3Ef15fHRaR



Category:TV > HEVC/x265
Lang:English  English
Total Size:1.29 GB
Info Hash:3c625be24f4210d4e086212fa622ea7e3f7c421e
Added By:UTR
Date Added:06-05-2019 13:43:21

Files

File List: 
 File Size
Game.of.Thrones.S08E04.1080p.AMZN.WEB-DL.x265.10bit.EAC3.6.0-Qman[UTR].mkv1.29 GB



Loading...
Comments

There are currently no comments. Be the first one to write something !